  0
SECTION
  2
HEADER
  9
$ACADVER
  1
AC1027
  9
$ACADMAINTVER
 70
     8
  9
$DWGCODEPAGE
  3
ANSI_1252
  9
$REQUIREDVERSIONS
160
                 0
  9
$INSBASE
 10
0.0
 20
0.0
 30
0.0
  9
$EXTMIN
 10
1.000000000000000E+20
 20
1.000000000000000E+20
 30
1.000000000000000E+20
  9
$EXTMAX
 10
-1.000000000000000E+20
 20
-1.000000000000000E+20
 30
-1.000000000000000E+20
  9
$LIMMIN
 10
0.0
 20
0.0
  9
$LIMMAX
 10
12.0
 20
9.0
  9
$ORTHOMODE
 70
     0
  9
$REGENMODE
 70
     1
  9
$FILLMODE
 70
     1
  9
$QTEXTMODE
 70
     0
  9
$MIRRTEXT
 70
     1
  9
$LTSCALE
 40
1.0
  9
$ATTMODE
 70
     1
  9
$TEXTSIZE
 40
0.2
  9
$TRACEWID
 40
0.05
  9
$TEXTSTYLE
  7
Standard
  9
$CLAYER
  8
0
  9
$CELTYPE
  6
ByLayer
  9
$CECOLOR
 62
    18
  9
$CELTSCALE
 40
1.0
  9
$DISPSILH
 70
     0
  9
$DIMSCALE
 40
1.0
  9
$DIMASZ
 40
2.5
  9
$DIMEXO
 40
0.625
  9
$DIMDLI
 40
0.38
  9
$DIMRND
 40
0.0
  9
$DIMDLE
 40
0.0
  9
$DIMEXE
 40
1.25
  9
$DIMTP
 40
0.0
  9
$DIMTM
 40
0.0
  9
$DIMTXT
 40
2.5
  9
$DIMCEN
 40
0.09
  9
$DIMTSZ
 40
0.0
  9
$DIMTOL
 70
     0
  9
$DIMLIM
 70
     0
  9
$DIMTIH
 70
     1
  9
$DIMTOH
 70
     1
  9
$DIMSE1
 70
     0
  9
$DIMSE2
 70
     0
  9
$DIMTAD
 70
     0
  9
$DIMZIN
 70
     8
  9
$DIMBLK
  1

  9
$DIMASO
 70
     1
  9
$DIMSHO
 70
     1
  9
$DIMPOST
  1

  9
$DIMAPOST
  1

  9
$DIMALT
 70
     0
  9
$DIMALTD
 70
     2
  9
$DIMALTF
 40
25.4
  9
$DIMLFAC
 40
1.0
  9
$DIMTOFL
 70
     0
  9
$DIMTVP
 40
0.0
  9
$DIMTIX
 70
     0
  9
$DIMSOXD
 70
     0
  9
$DIMSAH
 70
     0
  9
$DIMBLK1
  1

  9
$DIMBLK2
  1

  9
$DIMSTYLE
  2
Standard
  9
$DIMCLRD
 70
    18
  9
$DIMCLRE
 70
    18
  9
$DIMCLRT
 70
    18
  9
$DIMTFAC
 40
1.0
  9
$DIMGAP
 40
0.625
  9
$DIMJUST
 70
     0
  9
$DIMSD1
 70
     0
  9
$DIMSD2
 70
     0
  9
$DIMTOLJ
 70
     1
  9
$DIMTZIN
 70
     0
  9
$DIMALTZ
 70
     0
  9
$DIMALTTZ
 70
     0
  9
$DIMUPT
 70
     0
  9
$DIMDEC
 70
     4
  9
$DIMTDEC
 70
     4
  9
$DIMALTU
 70
     2
  9
$DIMALTTD
 70
     2
  9
$DIMTXSTY
  7
Standard
  9
$DIMAUNIT
 70
     0
  9
$DIMADEC
 70
     0
  9
$DIMALTRND
 40
0.0
  9
$DIMAZIN
 70
     2
  9
$DIMDSEP
 70
    46
  9
$DIMATFIT
 70
     3
  9
$DIMFRAC
 70
     0
  9
$DIMLDRBLK
  1

  9
$DIMLUNIT
 70
     2
  9
$DIMLWD
 70
    -2
  9
$DIMLWE
 70
    -2
  9
$DIMTMOVE
 70
     0
  9
$DIMFXL
 40
1.0
  9
$DIMFXLON
 70
     0
  9
$DIMJOGANG
 40
0.7853981633974483
  9
$DIMTFILL
 70
     0
  9
$DIMTFILLCLR
 70
     0
  9
$DIMARCSYM
 70
     0
  9
$DIMLTYPE
  6

  9
$DIMLTEX1
  6

  9
$DIMLTEX2
  6

  9
$DIMTXTDIRECTION
 70
     0
  9
$LUNITS
 70
     2
  9
$LUPREC
 70
     4
  9
$SKETCHINC
 40
0.1
  9
$FILLETRAD
 40
0.5
  9
$AUNITS
 70
     0
  9
$AUPREC
 70
     0
  9
$MENU
  1
.
  9
$ELEVATION
 40
0.0
  9
$PELEVATION
 40
0.0
  9
$THICKNESS
 40
0.0
  9
$LIMCHECK
 70
     0
  9
$CHAMFERA
 40
0.0
  9
$CHAMFERB
 40
0.0
  9
$CHAMFERC
 40
0.0
  9
$CHAMFERD
 40
0.0
  9
$SKPOLY
 70
     0
  9
$TDCREATE
 40
2457371.651723113
  9
$TDUCREATE
 40
2457371.610056447
  9
$TDUPDATE
 40
2457371.651723206
  9
$TDUUPDATE
 40
2457371.61005654
  9
$TDINDWG
 40
0.0000000116
  9
$TDUSRTIMER
 40
0.0000000116
  9
$USRTIMER
 70
     1
  9
$ANGBASE
 50
0.0
  9
$ANGDIR
 70
     0
  9
$PDMODE
 70
     0
  9
$PDSIZE
 40
0.0
  9
$PLINEWID
 40
0.0
  9
$SPLFRAME
 70
     0
  9
$SPLINETYPE
 70
     6
  9
$SPLINESEGS
 70
     8
  9
$HANDSEED
  5
30A
  9
$SURFTAB1
 70
     6
  9
$SURFTAB2
 70
     6
  9
$SURFTYPE
 70
     6
  9
$SURFU
 70
     6
  9
$SURFV
 70
     6
  9
$UCSBASE
  2

  9
$UCSNAME
  2

  9
$UCSORG
 10
0.0
 20
0.0
 30
0.0
  9
$UCSXDIR
 10
1.0
 20
0.0
 30
0.0
  9
$UCSYDIR
 10
0.0
 20
1.0
 30
0.0
  9
$UCSORTHOREF
  2

  9
$UCSORTHOVIEW
 70
     0
  9
$UCSORGTOP
 10
0.0
 20
0.0
 30
0.0
  9
$UCSORGBOTTOM
 10
0.0
 20
0.0
 30
0.0
  9
$UCSORGLEFT
 10
0.0
 20
0.0
 30
0.0
  9
$UCSORGRIGHT
 10
0.0
 20
0.0
 30
0.0
  9
$UCSORGFRONT
 10
0.0
 20
0.0
 30
0.0
  9
$UCSORGBACK
 10
0.0
 20
0.0
 30
0.0
  9
$PUCSBASE
  2

  9
$PUCSNAME
  2

  9
$PUCSORG
 10
0.0
 20
0.0
 30
0.0
  9
$PUCSXDIR
 10
1.0
 20
0.0
 30
0.0
  9
$PUCSYDIR
 10
0.0
 20
1.0
 30
0.0
  9
$PUCSORTHOREF
  2

  9
$PUCSORTHOVIEW
 70
     0
  9
$PUCSORGTOP
 10
0.0
 20
0.0
 30
0.0
  9
$PUCSORGBOTTOM
 10
0.0
 20
0.0
 30
0.0
  9
$PUCSORGLEFT
 10
0.0
 20
0.0
 30
0.0
  9
$PUCSORGRIGHT
 10
0.0
 20
0.0
 30
0.0
  9
$PUCSORGFRONT
 10
0.0
 20
0.0
 30
0.0
  9
$PUCSORGBACK
 10
0.0
 20
0.0
 30
0.0
  9
$USERI1
 70
     0
  9
$USERI2
 70
     0
  9
$USERI3
 70
     0
  9
$USERI4
 70
     0
  9
$USERI5
 70
     0
  9
$USERR1
 40
0.0
  9
$USERR2
 40
0.0
  9
$USERR3
 40
0.0
  9
$USERR4
 40
0.0
  9
$USERR5
 40
0.0
  9
$WORLDVIEW
 70
     1
  9
$SHADEDGE
 70
     3
  9
$SHADEDIF
 70
    70
  9
$TILEMODE
 70
     1
  9
$MAXACTVP
 70
     2
  9
$PINSBASE
 10
0.0
 20
0.0
 30
0.0
  9
$PLIMCHECK
 70
     0
  9
$PEXTMIN
 10
1.000000000000000E+20
 20
1.000000000000000E+20
 30
1.000000000000000E+20
  9
$PEXTMAX
 10
-1.000000000000000E+20
 20
-1.000000000000000E+20
 30
-1.000000000000000E+20
  9
$PLIMMIN
 10
0.0
 20
0.0
  9
$PLIMMAX
 10
12.0
 20
9.0
  9
$UNITMODE
 70
     0
  9
$VISRETAIN
 70
     1
  9
$PLINEGEN
 70
     0
  9
$PSLTSCALE
 70
     1
  9
$TREEDEPTH
 70
  3020
  9
$CMLSTYLE
  2
Standard
  9
$CMLJUST
 70
     0
  9
$CMLSCALE
 40
1.0
  9
$PROXYGRAPHICS
 70
     1
  9
$MEASUREMENT
 70
     1
  9
$CELWEIGHT
370
    -1
  9
$ENDCAPS
280
     0
  9
$JOINSTYLE
280
     0
  9
$LWDISPLAY
290
     0
  9
$INSUNITS
 70
     4
  9
$HYPERLINKBASE
  1

  9
$STYLESHEET
  1

  9
$XEDIT
290
     1
  9
$CEPSNTYPE
380
     0
  9
$PSTYLEMODE
290
     1
  9
$FINGERPRINTGUID
  2
{9EF7DBDD-D77A-4843-92C6-0D92C42508A2}
  9
$VERSIONGUID
  2
{FAEB1C32-E019-11D5-929B-00C0DF256EC4}
  9
$EXTNAMES
290
     1
  9
$PSVPSCALE
 40
0.0
  9
$OLESTARTUP
290
     0
  9
$SORTENTS
280
   127
  9
$INDEXCTL
280
     0
  9
$HIDETEXT
280
     1
  9
$XCLIPFRAME
280
     2
  9
$HALOGAP
280
     0
  9
$OBSCOLOR
 70
   257
  9
$OBSLTYPE
280
     0
  9
$INTERSECTIONDISPLAY
280
     0
  9
$INTERSECTIONCOLOR
 70
   257
  9
$DIMASSOC
280
     2
  9
$PROJECTNAME
  1

  9
$CAMERADISPLAY
290
     0
  9
$LENSLENGTH
 40
50.0
  9
$CAMERAHEIGHT
 40
0.0
  9
$STEPSPERSEC
 40
2.0
  9
$STEPSIZE
 40
6.0
  9
$3DDWFPREC
 40
2.0
  9
$PSOLWIDTH
 40
0.25
  9
$PSOLHEIGHT
 40
4.0
  9
$LOFTANG1
 40
1.570796326794897
  9
$LOFTANG2
 40
1.570796326794897
  9
$LOFTMAG1
 40
0.0
  9
$LOFTMAG2
 40
0.0
  9
$LOFTPARAM
 70
     7
  9
$LOFTNORMALS
280
     1
  9
$LATITUDE
 40
37.795
  9
$LONGITUDE
 40
-122.394
  9
$NORTHDIRECTION
 40
0.0
  9
$TIMEZONE
 70
 -8000
  9
$LIGHTGLYPHDISPLAY
280
     1
  9
$TILEMODELIGHTSYNCH
280
     1
  9
$CMATERIAL
347
1E6
  9
$SOLIDHIST
280
     0
  9
$SHOWHIST
280
     1
  9
$DWFFRAME
280
     2
  9
$DGNFRAME
280
     2
  9
$REALWORLDSCALE
290
     1
  9
$INTERFERECOLOR
 62
   256
  9
$CSHADOW
280
     0
  9
$SHADOWPLANELOCATION
 40
0.0
  0
ENDSEC
  0
SECTION
  2
CLASSES
  0
CLASS
  1
ACDBDICTIONARYWDFLT
  2
AcDbDictionaryWithDefault
  3
ObjectDBX Classes
 90
        0
 91
        4
280
     0
281
     0
  0
CLASS
  1
VISUALSTYLE
  2
AcDbVisualStyle
  3
ObjectDBX Classes
 90
     4095
 91
        4
280
     0
281
     0
  0
CLASS
  1
MATERIAL
  2
AcDbMaterial
  3
ObjectDBX Classes
 90
     1153
 91
        4
280
     0
281
     0
  0
CLASS
  1
SCALE
  2
AcDbScale
  3
ObjectDBX Classes
 90
     1153
 91
        4
280
     0
281
     0
  0
CLASS
  1
TABLESTYLE
  2
AcDbTableStyle
  3
ObjectDBX Classes
 90
     4095
 91
        4
280
     0
281
     0
  0
CLASS
  1
MLEADERSTYLE
  2
AcDbMLeaderStyle
  3
ACDB_MLEADERSTYLE_CLASS
 90
     4095
 91
        4
280
     0
281
     0
  0
CLASS
  1
SUN
  2
AcDbSun
  3
SCENEOE
 90
     1153
 91
        4
280
     0
281
     0
  0
CLASS
  1
DICTIONARYVAR
  2
AcDbDictionaryVar
  3
ObjectDBX Classes
 90
        0
 91
        4
280
     0
281
     0
  0
CLASS
  1
CELLSTYLEMAP
  2
AcDbCellStyleMap
  3
ObjectDBX Classes
 90
     1152
 91
        4
280
     0
281
     0
  0
ENDSEC
  0
SECTION
  2
TABLES
  0
TABLE
  2
VPORT
  5
1AB
330
0
100
AcDbSymbolTable
 70
     1
  0
VPORT
  5
1CB
330
1AB
100
AcDbSymbolTableRecord
100
AcDbViewportTableRecord
  2
*Active
 70
     0
 10
0.0
 20
0.0
 11
1.0
 21
1.0
 12
10.42990654205607
 22
4.5
 13
0.0
 23
0.0
 14
0.5
 24
0.5
 15
0.5
 25
0.5
 16
0.0
 26
0.0
 36
1.0
 17
0.0
 27
0.0
 37
0.0
 40
9.0
 41
1.972972972850329
 42
50.0
 43
0.0
 44
0.0
 50
0.0
 51
0.0
 71
     0
 72
   100
 73
     1
 74
     3
 75
     0
 76
     0
 77
     0
 78
     0
281
     0
 65
     1
110
0.0
120
0.0
130
0.0
111
1.0
121
0.0
131
0.0
112
0.0
122
1.0
132
0.0
 79
     0
146
0.0
 60
     3
 61
     5
292
     1
282
     1
141
0.0
142
0.0
 63
   250
361
20F
  0
ENDTAB
  0
TABLE
  2
LTYPE
  5
1A8
330
0
100
AcDbSymbolTable
 70
    48
  0
LTYPE
  5
1B6
330
1A8
100
AcDbSymbolTableRecord
100
AcDbLinetypeTableRecord
  2
ByBlock
 70
     0
  3

 72
    65
 73
     0
 40
0.0
  0
LTYPE
  5
1B7
330
1A8
100
AcDbSymbolTableRecord
100
AcDbLinetypeTableRecord
  2
ByLayer
 70
     0
  3

 72
    65
 73
     0
 40
0.0
  0
LTYPE
  5
1B8
330
1A8
100
AcDbSymbolTableRecord
100
AcDbLinetypeTableRecord
  2
Continuous
 70
     0
  3
Solid line
 72
    65
 73
     0
 40
0.0
  0
LTYPE
  5
243
330
1A8
100
AcDbSymbolTableRecord
100
AcDbLinetypeTableRecord
  2
ACAD_ISO02W100
 70
     0
  3
ISO dash __ __ __ __ __ __ __ __ __ __ __ __ __
 72
    65
 73
     2
 40
15.0
 49
12.0
 74
     0
 49
-3.0
 74
     0
  0
LTYPE
  5
244
330
1A8
100
AcDbSymbolTableRecord
100
AcDbLinetypeTableRecord
  2
ACAD_ISO03W100
 70
     0
  3
ISO dash space __    __    __    __    __    __
 72
    65
 73
     2
 40
30.0
 49
12.0
 74
     0
 49
-18.0
 74
     0
  0
LTYPE
  5
245
330
1A8
100
AcDbSymbolTableRecord
100
AcDbLinetypeTableRecord
  2
ACAD_ISO04W100
 70
     0
  3
ISO long-dash dot ____ . ____ . ____ . ____ . _
 72
    65
 73
     4
 40
30.0
 49
24.0
 74
     0
 49
-3.0
 74
     0
 49
0.0
 74
     0
 49
-3.0
 74
     0
  0
LTYPE
  5
246
330
1A8
100
AcDbSymbolTableRecord
100
AcDbLinetypeTableRecord
  2
ACAD_ISO05W100
 70
     0
  3
ISO long-dash double-dot ____ .. ____ .. ____ . 
 72
    65
 73
     6
 40
33.0
 49
24.0
 74
     0
 49
-3.0
 74
     0
 49
0.0
 74
     0
 49
-3.0
 74
     0
 49
0.0
 74
     0
 49
-3.0
 74
     0
  0
LTYPE
  5
247
330
1A8
100
AcDbSymbolTableRecord
100
AcDbLinetypeTableRecord
  2
ACAD_ISO06W100
 70
     0
  3
ISO long-dash triple-dot ____ ... ____ ... ____
 72
    65
 73
     8
 40
36.0
 49
24.0
 74
     0
 49
-3.0
 74
     0
 49
0.0
 74
     0
 49
-3.0
 74
     0
 49
0.0
 74
     0
 49
-3.0
 74
     0
 49
0.0
 74
     0
 49
-3.0
 74
     0
  0
LTYPE
  5
248
330
1A8
100
AcDbSymbolTableRecord
100
AcDbLinetypeTableRecord
  2
ACAD_ISO07W100
 70
     0
  3
ISO dot . . . . . . . . . . . . . . . . . . . . 
 72
    65
 73
     2
 40
3.0
 49
0.0
 74
     0
 49
-3.0
 74
     0
  0
LTYPE
  5
249
330
1A8
100
AcDbSymbolTableRecord
100
AcDbLinetypeTableRecord
  2
ACAD_ISO08W100
 70
     0
  3
ISO long-dash short-dash ____ __ ____ __ ____ _
 72
    65
 73
     4
 40
36.0
 49
24.0
 74
     0
 49
-3.0
 74
     0
 49
6.0
 74
     0
 49
-3.0
 74
     0
  0
LTYPE
  5
24A
330
1A8
100
AcDbSymbolTableRecord
100
AcDbLinetypeTableRecord
  2
ACAD_ISO09W100
 70
     0
  3
ISO long-dash double-short-dash ____ __ __ ____
 72
    65
 73
     6
 40
45.0
 49
24.0
 74
     0
 49
-3.0
 74
     0
 49
6.0
 74
     0
 49
-3.0
 74
     0
 49
6.0
 74
     0
 49
-3.0
 74
     0
  0
LTYPE
  5
24B
330
1A8
100
AcDbSymbolTableRecord
100
AcDbLinetypeTableRecord
  2
ACAD_ISO10W100
 70
     0
  3
ISO dash dot __ . __ . __ . __ . __ . __ . __ . 
 72
    65
 73
     4
 40
18.0
 49
12.0
 74
     0
 49
-3.0
 74
     0
 49
0.0
 74
     0
 49
-3.0
 74
     0
  0
LTYPE
  5
24C
330
1A8
100
AcDbSymbolTableRecord
100
AcDbLinetypeTableRecord
  2
ACAD_ISO11W100
 70
     0
  3
ISO double-dash dot __ __ . __ __ . __ __ . __ _
 72
    65
 73
     6
 40
33.0
 49
12.0
 74
     0
 49
-3.0
 74
     0
 49
12.0
 74
     0
 49
-3.0
 74
     0
 49
0.0
 74
     0
 49
-3.0
 74
     0
  0
LTYPE
  5
24D
330
1A8
100
AcDbSymbolTableRecord
100
AcDbLinetypeTableRecord
  2
ACAD_ISO12W100
 70
     0
  3
ISO dash double-dot __ . . __ . . __ . . __ . . 
 72
    65
 73
     6
 40
21.0
 49
12.0
 74
     0
 49
-3.0
 74
     0
 49
0.0
 74
     0
 49
-3.0
 74
     0
 49
0.0
 74
     0
 49
-3.0
 74
     0
  0
LTYPE
  5
24E
330
1A8
100
AcDbSymbolTableRecord
100
AcDbLinetypeTableRecord
  2
ACAD_ISO13W100
 70
     0
  3
ISO double-dash double-dot __ __ . . __ __ . . _
 72
    65
 73
     8
 40
36.0
 49
12.0
 74
     0
 49
-3.0
 74
     0
 49
12.0
 74
     0
 49
-3.0
 74
     0
 49
0.0
 74
     0
 49
-3.0
 74
     0
 49
0.0
 74
     0
 49
-3.0
 74
     0
  0
LTYPE
  5
24F
330
1A8
100
AcDbSymbolTableRecord
100
AcDbLinetypeTableRecord
  2
ACAD_ISO14W100
 70
     0
  3
ISO dash triple-dot __ . . . __ . . . __ . . . _
 72
    65
 73
     8
 40
24.0
 49
12.0
 74
     0
 49
-3.0
 74
     0
 49
0.0
 74
     0
 49
-3.0
 74
     0
 49
0.0
 74
     0
 49
-3.0
 74
     0
 49
0.0
 74
     0
 49
-3.0
 74
     0
  0
LTYPE
  5
250
330
1A8
100
AcDbSymbolTableRecord
100
AcDbLinetypeTableRecord
  2
ACAD_ISO15W100
 70
     0
  3
ISO double-dash triple-dot __ __ . . . __ __ . .
 72
    65
 73
    10
 40
39.0
 49
12.0
 74
     0
 49
-3.0
 74
     0
 49
12.0
 74
     0
 49
-3.0
 74
     0
 49
0.0
 74
     0
 49
-3.0
 74
     0
 49
0.0
 74
     0
 49
-3.0
 74
     0
 49
0.0
 74
     0
 49
-3.0
 74
     0
  0
LTYPE
  5
253
330
1A8
100
AcDbSymbolTableRecord
100
AcDbLinetypeTableRecord
  2
BATTING
 70
     0
  3
Batting SSSSSSSSSSSSSSSSSSSSSSSSSSSSSSSSSSSSSSSSSSSSSSS
 72
    65
 73
     4
 40
10.16254
 49
0.00254
 74
     0
 49
-2.54
 74
     2
 75
     0
340
251
 46
2.54
 50
0.0
 44
-2.54
 45
0.0
  9
BAT
 49
-5.08
 74
     2
 75
     0
340
252
 46
2.54
 50
180.0
 44
2.54
 45
0.0
  9
BAT
 49
-2.54
 74
     0
  0
LTYPE
  5
254
330
1A8
100
AcDbSymbolTableRecord
100
AcDbLinetypeTableRecord
  2
BORDER
 70
     0
  3
Border __ __ . __ __ . __ __ . __ __ . __ __ .
 72
    65
 73
     6
 40
44.45
 49
12.7
 74
     0
 49
-6.35
 74
     0
 49
12.7
 74
     0
 49
-6.35
 74
     0
 49
0.0
 74
     0
 49
-6.35
 74
     0
  0
LTYPE
  5
255
330
1A8
100
AcDbSymbolTableRecord
100
AcDbLinetypeTableRecord
  2
BORDER2
 70
     0
  3
Border (.5x) __.__.__.__.__.__.__.__.__.__.__.
 72
    65
 73
     6
 40
22.225
 49
6.35
 74
     0
 49
-3.175
 74
     0
 49
6.35
 74
     0
 49
-3.175
 74
     0
 49
0.0
 74
     0
 49
-3.175
 74
     0
  0
LTYPE
  5
256
330
1A8
100
AcDbSymbolTableRecord
100
AcDbLinetypeTableRecord
  2
BORDERX2
 70
     0
  3
Border (2x) ____  ____  .  ____  ____  .  ___
 72
    65
 73
     6
 40
88.89999999999999
 49
25.4
 74
     0
 49
-12.7
 74
     0
 49
25.4
 74
     0
 49
-12.7
 74
     0
 49
0.0
 74
     0
 49
-12.7
 74
     0
  0
LTYPE
  5
257
330
1A8
100
AcDbSymbolTableRecord
100
AcDbLinetypeTableRecord
  2
CENTER
 70
     0
  3
Center ____ _ ____ _ ____ _ ____ _ ____ _ ____
 72
    65
 73
     4
 40
50.8
 49
31.75
 74
     0
 49
-6.35
 74
     0
 49
6.35
 74
     0
 49
-6.35
 74
     0
  0
LTYPE
  5
258
330
1A8
100
AcDbSymbolTableRecord
100
AcDbLinetypeTableRecord
  2
CENTER2
 70
     0
  3
Center (.5x) ___ _ ___ _ ___ _ ___ _ ___ _ ___
 72
    65
 73
     4
 40
28.575
 49
19.05
 74
     0
 49
-3.175
 74
     0
 49
3.175
 74
     0
 49
-3.175
 74
     0
  0
LTYPE
  5
259
330
1A8
100
AcDbSymbolTableRecord
100
AcDbLinetypeTableRecord
  2
CENTERX2
 70
     0
  3
Center (2x) ________  __  ________  __  _____
 72
    65
 73
     4
 40
101.6
 49
63.5
 74
     0
 49
-12.7
 74
     0
 49
12.7
 74
     0
 49
-12.7
 74
     0
  0
LTYPE
  5
25A
330
1A8
100
AcDbSymbolTableRecord
100
AcDbLinetypeTableRecord
  2
DASHDOT
 70
     0
  3
Dash dot __ . __ . __ . __ . __ . __ . __ . __
 72
    65
 73
     4
 40
25.4
 49
12.7
 74
     0
 49
-6.35
 74
     0
 49
0.0
 74
     0
 49
-6.35
 74
     0
  0
LTYPE
  5
25B
330
1A8
100
AcDbSymbolTableRecord
100
AcDbLinetypeTableRecord
  2
DASHDOT2
 70
     0
  3
Dash dot (.5x) _._._._._._._._._._._._._._._.
 72
    65
 73
     4
 40
12.7
 49
6.35
 74
     0
 49
-3.175
 74
     0
 49
0.0
 74
     0
 49
-3.175
 74
     0
  0
LTYPE
  5
25C
330
1A8
100
AcDbSymbolTableRecord
100
AcDbLinetypeTableRecord
  2
DASHDOTX2
 70
     0
  3
Dash dot (2x) ____  .  ____  .  ____  .  ___
 72
    65
 73
     4
 40
50.8
 49
25.4
 74
     0
 49
-12.7
 74
     0
 49
0.0
 74
     0
 49
-12.7
 74
     0
  0
LTYPE
  5
25D
330
1A8
100
AcDbSymbolTableRecord
100
AcDbLinetypeTableRecord
  2
DASHED
 70
     0
  3
Dashed __ __ __ __ __ __ __ __ __ __ __ __ __ _
 72
    65
 73
     2
 40
19.05
 49
12.7
 74
     0
 49
-6.35
 74
     0
  0
LTYPE
  5
25E
330
1A8
100
AcDbSymbolTableRecord
100
AcDbLinetypeTableRecord
  2
DASHED2
 70
     0
  3
Dashed (.5x) _ _ _ _ _ _ _ _ _ _ _ _ _ _ _ _ _ 
 72
    65
 73
     2
 40
9.524999999999999
 49
6.35
 74
     0
 49
-3.175
 74
     0
  0
LTYPE
  5
25F
330
1A8
100
AcDbSymbolTableRecord
100
AcDbLinetypeTableRecord
  2
DASHEDX2
 70
     0
  3
Dashed (2x) ____  ____  ____  ____  ____  ___
 72
    65
 73
     2
 40
38.09999999999999
 49
25.4
 74
     0
 49
-12.7
 74
     0
  0
LTYPE
  5
260
330
1A8
100
AcDbSymbolTableRecord
100
AcDbLinetypeTableRecord
  2
DIVIDE
 70
     0
  3
Divide ____ . . ____ . . ____ . . ____ . . ____
 72
    65
 73
     6
 40
31.75
 49
12.7
 74
     0
 49
-6.35
 74
     0
 49
0.0
 74
     0
 49
-6.35
 74
     0
 49
0.0
 74
     0
 49
-6.35
 74
     0
  0
LTYPE
  5
261
330
1A8
100
AcDbSymbolTableRecord
100
AcDbLinetypeTableRecord
  2
DIVIDE2
 70
     0
  3
Divide (.5x) __..__..__..__..__..__..__..__.._
 72
    65
 73
     6
 40
15.875
 49
6.35
 74
     0
 49
-3.175
 74
     0
 49
0.0
 74
     0
 49
-3.175
 74
     0
 49
0.0
 74
     0
 49
-3.175
 74
     0
  0
LTYPE
  5
262
330
1A8
100
AcDbSymbolTableRecord
100
AcDbLinetypeTableRecord
  2
DIVIDEX2
 70
     0
  3
Divide (2x) ________  .  .  ________  .  .  _
 72
    65
 73
     6
 40
63.5
 49
25.4
 74
     0
 49
-12.7
 74
     0
 49
0.0
 74
     0
 49
-12.7
 74
     0
 49
0.0
 74
     0
 49
-12.7
 74
     0
  0
LTYPE
  5
263
330
1A8
100
AcDbSymbolTableRecord
100
AcDbLinetypeTableRecord
  2
DOT
 70
     0
  3
Dot . . . . . . . . . . . . . . . . . . . . . . . .
 72
    65
 73
     2
 40
6.35
 49
0.0
 74
     0
 49
-6.35
 74
     0
  0
LTYPE
  5
264
330
1A8
100
AcDbSymbolTableRecord
100
AcDbLinetypeTableRecord
  2
DOT2
 70
     0
  3
Dot (.5x) ........................................
 72
    65
 73
     2
 40
3.175
 49
0.0
 74
     0
 49
-3.175
 74
     0
  0
LTYPE
  5
265
330
1A8
100
AcDbSymbolTableRecord
100
AcDbLinetypeTableRecord
  2
DOTX2
 70
     0
  3
Dot (2x) .  .  .  .  .  .  .  .  .  .  .  .  .  .
 72
    65
 73
     2
 40
12.7
 49
0.0
 74
     0
 49
-12.7
 74
     0
  0
LTYPE
  5
267
330
1A8
100
AcDbSymbolTableRecord
100
AcDbLinetypeTableRecord
  2
DRAINAGE
 70
     0
  3
Drainage ---->---->---->----
 72
    65
 73
     2
 40
10.16
 49
5.08
 74
     2
 75
     0
340
266
 46
2.54
 50
180.0
 44
0.0
 45
0.0
  9
RIGHT_ARROW
 49
5.08
 74
     0
  0
LTYPE
  5
269
330
1A8
100
AcDbSymbolTableRecord
100
AcDbLinetypeTableRecord
  2
DRAINAGE2
 70
     0
  3
Drainage reversed----<----<----<----
 72
    65
 73
     2
 40
10.16
 49
5.08
 74
     2
 75
     0
340
268
 46
2.54
 50
0.0
 44
0.0
 45
0.0
  9
RIGHT_ARROW
 49
5.08
 74
     0
  0
LTYPE
  5
26B
330
1A8
100
AcDbSymbolTableRecord
100
AcDbLinetypeTableRecord
  2
FENCELINE1
 70
     0
  3
Fenceline circle ----0-----0----0-----0----0-----0--
 72
    65
 73
     4
 40
36.83
 49
6.35
 74
     0
 49
-2.54
 74
     2
 75
     0
340
26A
 46
2.54
 50
0.0
 44
-2.54
 45
0.0
  9
CIRC1
 49
-2.54
 74
     0
 49
25.4
 74
     0
  0
LTYPE
  5
26D
330
1A8
100
AcDbSymbolTableRecord
100
AcDbLinetypeTableRecord
  2
FENCELINE2
 70
     0
  3
Fenceline square ----[]-----[]----[]-----[]----[]---
 72
    65
 73
     4
 40
36.83
 49
6.35
 74
     0
 49
-2.54
 74
     2
 75
     0
340
26C
 46
2.54
 50
0.0
 44
-2.54
 45
0.0
  9
BOX
 49
-2.54
 74
     0
 49
25.4
 74
     0
  0
LTYPE
  5
26F
330
1A8
100
AcDbSymbolTableRecord
100
AcDbLinetypeTableRecord
  2
GAS_LINE
 70
     0
  3
Gas line ----GAS----GAS----GAS----GAS----GAS----GAS--
 72
    65
 73
     3
 40
24.13
 49
12.7
 74
     0
 49
-5.08
 74
     2
 75
     0
340
26E
 46
2.54
 50
0.0
 44
-2.54
 45
-1.27
  9
GAS
 49
-6.35
 74
     0
  0
LTYPE
  5
270
330
1A8
100
AcDbSymbolTableRecord
100
AcDbLinetypeTableRecord
  2
HIDDEN
 70
     0
  3
Hidden __ __ __ __ __ __ __ __ __ __ __ __ __ __
 72
    65
 73
     2
 40
9.524999999999999
 49
6.35
 74
     0
 49
-3.175
 74
     0
  0
LTYPE
  5
271
330
1A8
100
AcDbSymbolTableRecord
100
AcDbLinetypeTableRecord
  2
HIDDEN2
 70
     0
  3
Hidden (.5x) _ _ _ _ _ _ _ _ _ _ _ _ _ _ _ _ _ 
 72
    65
 73
     2
 40
4.762499999999999
 49
3.175
 74
     0
 49
-1.5875
 74
     0
  0
LTYPE
  5
272
330
1A8
100
AcDbSymbolTableRecord
100
AcDbLinetypeTableRecord
  2
HIDDENX2
 70
     0
  3
Hidden (2x) ____ ____ ____ ____ ____ ____ ____ 
 72
    65
 73
     2
 40
19.05
 49
12.7
 74
     0
 49
-6.35
 74
     0
  0
LTYPE
  5
274
330
1A8
100
AcDbSymbolTableRecord
100
AcDbLinetypeTableRecord
  2
HOT_WATER_SUPPLY
 70
     0
  3
Hot water supply ---- HW ---- HW ---- HW ----
 72
    65
 73
     3
 40
22.86
 49
12.7
 74
     0
 49
-5.08
 74
     2
 75
     0
340
273
 46
2.54
 50
0.0
 44
-2.54
 45
-1.27
  9
HW
 49
-5.08
 74
     0
  0
LTYPE
  5
275
330
1A8
100
AcDbSymbolTableRecord
100
AcDbLinetypeTableRecord
  2
PHANTOM
 70
     0
  3
Phantom ______  __  __  ______  __  __  ______ 
 72
    65
 73
     6
 40
63.50000000000001
 49
31.75
 74
     0
 49
-6.35
 74
     0
 49
6.35
 74
     0
 49
-6.35
 74
     0
 49
6.35
 74
     0
 49
-6.35
 74
     0
  0
LTYPE
  5
276
330
1A8
100
AcDbSymbolTableRecord
100
AcDbLinetypeTableRecord
  2
PHANTOM2
 70
     0
  3
Phantom (.5x) ___ _ _ ___ _ _ ___ _ _ ___ _ _
 72
    65
 73
     6
 40
31.75
 49
15.875
 74
     0
 49
-3.175
 74
     0
 49
3.175
 74
     0
 49
-3.175
 74
     0
 49
3.175
 74
     0
 49
-3.175
 74
     0
  0
LTYPE
  5
277
330
1A8
100
AcDbSymbolTableRecord
100
AcDbLinetypeTableRecord
  2
PHANTOMX2
 70
     0
  3
Phantom (2x) ____________    ____    ____   _
 72
    65
 73
     6
 40
127.0
 49
63.5
 74
     0
 49
-12.7
 74
     0
 49
12.7
 74
     0
 49
-12.7
 74
     0
 49
12.7
 74
     0
 49
-12.7
 74
     0
  0
LTYPE
  5
279
330
1A8
100
AcDbSymbolTableRecord
100
AcDbLinetypeTableRecord
  2
TRACKS
 70
     0
  3
Tracks -|-|-|-|-|-|-|-|-|-|-|-|-|-|-|-|-|-|-|-|-|-|-|-|-
 72
    65
 73
     2
 40
7.62
 49
3.81
 74
     2
 75
     0
340
278
 46
6.35
 50
0.0
 44
0.0
 45
0.0
  9
TRACK1
 49
3.81
 74
     0
  0
LTYPE
  5
27C
330
1A8
100
AcDbSymbolTableRecord
100
AcDbLinetypeTableRecord
  2
ZIGZAG
 70
     0
  3
Zig zag /\/\/\/\/\/\/\/\/\/\/\/\/\/\/\/\/\/\/\/\/\/\/\/
 72
    65
 73
     4
 40
20.32254
 49
0.00254
 74
     0
 49
-5.08
 74
     2
 75
     0
340
27A
 46
5.08
 50
0.0
 44
-5.08
 45
0.0
  9
ZIG
 49
-10.16
 74
     2
 75
     0
340
27B
 46
5.08
 50
180.0
 44
5.08
 45
0.0
  9
ZIG
 49
-5.08
 74
     0
  0
ENDTAB
  0
TABLE
  2
LAYER
  5
1A5
330
0
100
AcDbSymbolTable
 70
     8
  0
LAYER
  5
1B3
330
1A5
100
AcDbSymbolTableRecord
100
AcDbLayerTableRecord
  2
0
 70
     0
 62
     7
420
 16777215
  6
Continuous
370
    25
390
1B2
347
1E8
348
0
  0
LAYER
  5
27D
330
1A5
100
AcDbSymbolTableRecord
100
AcDbLayerTableRecord
  2
Hilfslinien
 70
     1
 62
     1
420
 16711680
  6
Continuous
370
     5
390
1B2
347
1E8
348
0
  0
LAYER
  5
27E
330
1A5
100
AcDbSymbolTableRecord
100
AcDbLayerTableRecord
  2
Kanten
 70
     0
 62
    18
420
        0
  6
Continuous
370
    25
390
1B2
347
1E8
348
0
  0
LAYER
  5
27F
330
1A5
100
AcDbSymbolTableRecord
100
AcDbLayerTableRecord
  2
Schraffur 2
 70
     0
 62
     4
420
    65535
  6
Continuous
370
    25
390
1B2
347
1E8
348
0
  0
LAYER
  5
280
330
1A5
100
AcDbSymbolTableRecord
100
AcDbLayerTableRecord
  2
Bemaßung
 70
     0
 62
    18
420
        0
  6
Continuous
370
    13
390
1B2
347
1E8
348
0
  0
LAYER
  5
281
330
1A5
100
AcDbSymbolTableRecord
100
AcDbLayerTableRecord
  2
Schraffur1
 70
     0
 62
     5
420
      255
  6
Continuous
370
    25
390
1B2
347
1E8
348
0
  0
LAYER
  5
282
330
1A5
100
AcDbSymbolTableRecord
100
AcDbLayerTableRecord
  2
Kanten2
 70
     0
 62
    18
420
        0
  6
Continuous
370
    25
390
1B2
347
1E8
348
0
  0
LAYER
  5
283
330
1A5
100
AcDbSymbolTableRecord
100
AcDbLayerTableRecord
  2
Defpoints
 70
     0
 62
     7
420
 16777215
  6
Continuous
290
     0
370
    -3
390
1B2
347
1E8
348
0
  0
ENDTAB
  0
TABLE
  2
STYLE
  5
1A6
330
0
100
AcDbSymbolTable
 70
    13
  0
STYLE
  5
1B4
330
1A6
100
AcDbSymbolTableRecord
100
AcDbTextStyleTableRecord
  2
Standard
 70
     0
 40
0.0
 41
1.0
 50
0.0
 71
     0
 42
0.2
  3
txt
  4

  0
STYLE
  5
241
330
1A6
100
AcDbSymbolTableRecord
100
AcDbTextStyleTableRecord
  2
QCADDimTextStyle
 70
     0
 40
0.0
 41
1.0
 50
0.0
 71
     0
 42
0.2
  3
txt
  4

  0
STYLE
  5
251
330
1A6
100
AcDbSymbolTableRecord
100
AcDbTextStyleTableRecord
  2
textstyle0
 70
     0
 40
0.0
 41
1.0
 50
0.0
 71
     0
 42
0.2
  3
ltypeshp.shx
  4

  0
STYLE
  5
252
330
1A6
100
AcDbSymbolTableRecord
100
AcDbTextStyleTableRecord
  2
textstyle1
 70
     0
 40
0.0
 41
1.0
 50
0.0
 71
     0
 42
0.2
  3
ltypeshp.shx
  4

  0
STYLE
  5
266
330
1A6
100
AcDbSymbolTableRecord
100
AcDbTextStyleTableRecord
  2
textstyle2
 70
     0
 40
0.0
 41
1.0
 50
0.0
 71
     0
 42
0.2
  3
qcadshp.shx
  4

  0
STYLE
  5
268
330
1A6
100
AcDbSymbolTableRecord
100
AcDbTextStyleTableRecord
  2
textstyle3
 70
     0
 40
0.0
 41
1.0
 50
0.0
 71
     0
 42
0.2
  3
qcadshp.shx
  4

  0
STYLE
  5
26A
330
1A6
100
AcDbSymbolTableRecord
100
AcDbTextStyleTableRecord
  2
textstyle4
 70
     0
 40
0.0
 41
1.0
 50
0.0
 71
     0
 42
0.2
  3
ltypeshp.shx
  4

  0
STYLE
  5
26C
330
1A6
100
AcDbSymbolTableRecord
100
AcDbTextStyleTableRecord
  2
textstyle5
 70
     0
 40
0.0
 41
1.0
 50
0.0
 71
     0
 42
0.2
  3
ltypeshp.shx
  4

  0
STYLE
  5
26E
330
1A6
100
AcDbSymbolTableRecord
100
AcDbTextStyleTableRecord
  2
textstyle6
 70
     0
 40
0.0
 41
1.0
 50
0.0
 71
     0
 42
0.2
  3
STANDARD
  4

  0
STYLE
  5
273
330
1A6
100
AcDbSymbolTableRecord
100
AcDbTextStyleTableRecord
  2
textstyle7
 70
     0
 40
0.0
 41
1.0
 50
0.0
 71
     0
 42
0.2
  3
STANDARD
  4

  0
STYLE
  5
278
330
1A6
100
AcDbSymbolTableRecord
100
AcDbTextStyleTableRecord
  2
textstyle8
 70
     0
 40
0.0
 41
1.0
 50
0.0
 71
     0
 42
0.2
  3
ltypeshp.shx
  4

  0
STYLE
  5
27A
330
1A6
100
AcDbSymbolTableRecord
100
AcDbTextStyleTableRecord
  2
textstyle9
 70
     0
 40
0.0
 41
1.0
 50
0.0
 71
     0
 42
0.2
  3
ltypeshp.shx
  4

  0
STYLE
  5
27B
330
1A6
100
AcDbSymbolTableRecord
100
AcDbTextStyleTableRecord
  2
textstyle10
 70
     0
 40
0.0
 41
1.0
 50
0.0
 71
     0
 42
0.2
  3
ltypeshp.shx
  4

  0
ENDTAB
  0
TABLE
  2
VIEW
  5
1A9
330
0
100
AcDbSymbolTable
 70
     0
  0
ENDTAB
  0
TABLE
  2
UCS
  5
1AA
330
0
100
AcDbSymbolTable
 70
     0
  0
ENDTAB
  0
TABLE
  2
APPID
  5
1AC
330
0
100
AcDbSymbolTable
 70
     2
  0
APPID
  5
1B5
330
1AC
100
AcDbSymbolTableRecord
100
AcDbRegAppTableRecord
  2
ACAD
 70
     0
  0
APPID
  5
210
330
1AC
100
AcDbSymbolTableRecord
100
AcDbRegAppTableRecord
  2
QCAD
 70
     0
  0
ENDTAB
  0
TABLE
  2
DIMSTYLE
  5
1AD
330
0
100
AcDbSymbolTable
 70
     2
100
AcDbDimStyleTable
  0
DIMSTYLE
105
1C9
330
1AD
100
AcDbSymbolTableRecord
100
AcDbDimStyleTableRecord
  2
Standard
 70
     0
178
     0
340
1B4
  0
DIMSTYLE
105
242
102
{ACAD_REACTORS
330
8F
330
90
330
91
330
92
330
93
330
96
330
97
330
98
330
99
330
9A
102
}
330
1AD
100
AcDbSymbolTableRecord
100
AcDbDimStyleTableRecord
  2
QCADDimStyle
 70
     0
 41
2.5
 42
0.625
 44
1.25
 73
     0
 77
     1
140
2.5
147
0.625
178
     0
340
241
  0
ENDTAB
  0
TABLE
  2
BLOCK_RECORD
  5
1A4
330
0
100
AcDbSymbolTable
 70
    11
  0
BLOCK_RECORD
  5
1C1
330
1A4
100
AcDbSymbolTableRecord
100
AcDbBlockTableRecord
  2
*Model_Space
340
1C4
 70
     0
280
     1
281
     0
  0
BLOCK_RECORD
  5
1BD
330
1A4
100
AcDbSymbolTableRecord
100
AcDbBlockTableRecord
  2
*Paper_Space
340
1C0
 70
     0
280
     1
281
     0
  0
BLOCK_RECORD
  5
1C5
330
1A4
100
AcDbSymbolTableRecord
100
AcDbBlockTableRecord
  2
*Paper_Space0
340
1C8
 70
     0
280
     1
281
     0
  0
BLOCK_RECORD
  5
284
330
1A4
100
AcDbSymbolTableRecord
100
AcDbBlockTableRecord
  2
*D1
340
0
 70
     0
280
     1
281
     0
  0
BLOCK_RECORD
  5
290
330
1A4
100
AcDbSymbolTableRecord
100
AcDbBlockTableRecord
  2
*D2
340
0
 70
     0
280
     1
281
     0
  0
BLOCK_RECORD
  5
29C
330
1A4
100
AcDbSymbolTableRecord
100
AcDbBlockTableRecord
  2
*D3
340
0
 70
     0
280
     1
281
     0
  0
BLOCK_RECORD
  5
2A8
330
1A4
100
AcDbSymbolTableRecord
100
AcDbBlockTableRecord
  2
*D4
340
0
 70
     0
280
     1
281
     0
  0
BLOCK_RECORD
  5
2B5
330
1A4
100
AcDbSymbolTableRecord
100
AcDbBlockTableRecord
  2
*D5
340
0
 70
     0
280
     1
281
     0
  0
BLOCK_RECORD
  5
2C2
330
1A4
100
AcDbSymbolTableRecord
100
AcDbBlockTableRecord
  2
*D6
340
0
 70
     0
280
     1
281
     0
  0
BLOCK_RECORD
  5
2CE
330
1A4
100
AcDbSymbolTableRecord
100
AcDbBlockTableRecord
  2
*D7
340
0
 70
     0
280
     1
281
     0
  0
BLOCK_RECORD
  5
2DB
330
1A4
100
AcDbSymbolTableRecord
100
AcDbBlockTableRecord
  2
*D8
340
0
 70
     0
280
     1
281
     0
  0
BLOCK_RECORD
  5
2E8
330
1A4
100
AcDbSymbolTableRecord
100
AcDbBlockTableRecord
  2
*D9
340
0
 70
     0
280
     1
281
     0
  0
BLOCK_RECORD
  5
2F4
330
1A4
100
AcDbSymbolTableRecord
100
AcDbBlockTableRecord
  2
*D10
340
0
 70
     0
280
     1
281
     0
  0
ENDTAB
  0
ENDSEC
  0
SECTION
  2
BLOCKS
  0
BLOCK
  5
1C2
330
1C1
100
AcDbEntity
  8
0
100
AcDbBlockBegin
  2
*Model_Space
 70
     0
 10
0.0
 20
0.0
 30
0.0
  3
*Model_Space
  1
*Model_Space
  0
ENDBLK
  5
1C3
330
1C1
100
AcDbEntity
  8
0
100
AcDbBlockEnd
  0
BLOCK
  5
1BE
330
1BD
100
AcDbEntity
 67
     1
  8
0
100
AcDbBlockBegin
  2
*Paper_Space
 70
     0
 10
0.0
 20
0.0
 30
0.0
  3
*Paper_Space
  1
*Paper_Space
  0
ENDBLK
  5
1BF
330
1BD
100
AcDbEntity
 67
     1
  8
0
100
AcDbBlockEnd
  0
BLOCK
  5
1C6
330
1C5
100
AcDbEntity
  8
0
100
AcDbBlockBegin
  2
*Paper_Space0
 70
     0
 10
0.0
 20
0.0
 30
0.0
  3
*Paper_Space0
  1
*Paper_Space0
  0
ENDBLK
  5
1C7
330
1C5
100
AcDbEntity
  8
0
100
AcDbBlockEnd
  0
BLOCK
  5
285
330
284
100
AcDbEntity
  8
0
100
AcDbBlockBegin
  2
*D1
 70
     1
 10
0.0
 20
0.0
 30
0.0
  3
*D1
  1
*D1
  0
LINE
  5
287
330
284
100
AcDbEntity
  8
Bemaßung
 62
     0
370
    -2
100
AcDbLine
 10
6.375000000000002
 20
0.0
 30
0.0
 11
-4.25
 21
0.0
 31
0.0
  0
LINE
  5
288
330
284
100
AcDbEntity
  8
Bemaßung
 62
     0
370
    -2
100
AcDbLine
 10
-0.625
 20
10.45
 30
0.0
 11
-4.25
 21
10.45
 31
0.0
  0
LINE
  5
289
330
284
100
AcDbEntity
  8
Bemaßung
 62
     0
370
    -2
100
AcDbLine
 10
-3.0
 20
2.5
 30
0.0
 11
-3.0
 21
7.949999999999999
 31
0.0
  0
SOLID
  5
28A
330
284
100
AcDbEntity
  8
Bemaßung
 62
     0
100
AcDbTrace
 10
-3.416666666666667
 20
2.5
 30
0.0
 11
-2.583333333333333
 21
2.5
 31
0.0
 12
-3.0
 22
0.0
 32
0.0
 13
-3.0
 23
0.0
 33
0.0
  0
SOLID
  5
28B
330
284
100
AcDbEntity
  8
Bemaßung
 62
     0
100
AcDbTrace
 10
-2.583333333333333
 20
7.949999999999999
 30
0.0
 11
-3.416666666666666
 21
7.949999999999999
 31
0.0
 12
-3.0
 22
10.45
 32
0.0
 13
-3.0
 23
10.45
 33
0.0
  0
MTEXT
  5
28C
330
284
100
AcDbEntity
  8
Bemaßung
 62
     0
100
AcDbMText
 10
-6.4375
 20
5.225
 30
0.0
 40
2.5
 41
0.0
 46
0.0
 71
     5
 72
     1
  1
\A1;10.45
  7
QCADDimTextStyle
 73
     1
 44
1.0
  0
POINT
  5
28D
330
284
100
AcDbEntity
  8
Defpoints
 62
     0
100
AcDbPoint
 10
7.000000000000002
 20
0.0
 30
0.0
  0
POINT
  5
28E
330
284
100
AcDbEntity
  8
Defpoints
 62
     0
100
AcDbPoint
 10
0.0
 20
10.45
 30
0.0
  0
POINT
  5
28F
330
284
100
AcDbEntity
  8
Defpoints
 62
     0
100
AcDbPoint
 10
-3.0
 20
10.45
 30
0.0
  0
ENDBLK
  5
286
330
284
100
AcDbEntity
  8
0
100
AcDbBlockEnd
  0
BLOCK
  5
291
330
290
100
AcDbEntity
  8
0
100
AcDbBlockBegin
  2
*D2
 70
     1
 10
0.0
 20
0.0
 30
0.0
  3
*D2
  1
*D2
  0
LINE
  5
293
330
290
100
AcDbEntity
  8
Bemaßung
 62
     0
370
    -2
100
AcDbLine
 10
-0.625
 20
-10.45
 30
0.0
 11
-10.25
 21
-10.45
 31
0.0
  0
LINE
  5
294
330
290
100
AcDbEntity
  8
Bemaßung
 62
     0
370
    -2
100
AcDbLine
 10
-0.625
 20
10.45
 30
0.0
 11
-10.25
 21
10.45
 31
0.0
  0
LINE
  5
295
330
290
100
AcDbEntity
  8
Bemaßung
 62
     0
370
    -2
100
AcDbLine
 10
-8.999999999999998
 20
-7.949999999999999
 30
0.0
 11
-8.999999999999996
 21
7.949999999999999
 31
0.0
  0
SOLID
  5
296
330
290
100
AcDbEntity
  8
Bemaßung
 62
     0
100
AcDbTrace
 10
-9.416666666666664
 20
-7.949999999999999
 30
0.0
 11
-8.583333333333332
 21
-7.949999999999999
 31
0.0
 12
-8.999999999999998
 22
-10.45
 32
0.0
 13
-8.999999999999998
 23
-10.45
 33
0.0
  0
SOLID
  5
297
330
290
100
AcDbEntity
  8
Bemaßung
 62
     0
100
AcDbTrace
 10
-8.58333333333333
 20
7.949999999999999
 30
0.0
 11
-9.416666666666663
 21
7.949999999999999
 31
0.0
 12
-8.999999999999996
 22
10.45
 32
0.0
 13
-8.999999999999996
 23
10.45
 33
0.0
  0
MTEXT
  5
298
330
290
100
AcDbEntity
  8
Bemaßung
 62
     0
100
AcDbMText
 10
-10.875
 20
0.0000000000000002
 30
0.0
 40
2.5
 41
0.0
 46
0.0
 71
     5
 72
     1
  1
\A1;20.9
  7
QCADDimTextStyle
 11
8.499315021053830E-17
 21
1.0
 31
0.0
 73
     1
 44
1.0
  0
POINT
  5
299
330
290
100
AcDbEntity
  8
Defpoints
 62
     0
100
AcDbPoint
 10
0.0
 20
-10.45
 30
0.0
  0
POINT
  5
29A
330
290
100
AcDbEntity
  8
Defpoints
 62
     0
100
AcDbPoint
 10
0.0
 20
10.45
 30
0.0
  0
POINT
  5
29B
330
290
100
AcDbEntity
  8
Defpoints
 62
     0
100
AcDbPoint
 10
-8.999999999999996
 20
10.45
 30
0.0
  0
ENDBLK
  5
292
330
290
100
AcDbEntity
  8
0
100
AcDbBlockEnd
  0
BLOCK
  5
29D
330
29C
100
AcDbEntity
  8
0
100
AcDbBlockBegin
  2
*D3
 70
     1
 10
0.0
 20
0.0
 30
0.0
  3
*D3
  1
*D3
  0
LINE
  5
29F
330
29C
100
AcDbEntity
  8
Bemaßung
 62
     0
370
    -2
100
AcDbLine
 10
-0.625
 20
-14.65
 30
0.0
 11
-15.25
 21
-14.65
 31
0.0
  0
LINE
  5
2A0
330
29C
100
AcDbEntity
  8
Bemaßung
 62
     0
370
    -2
100
AcDbLine
 10
-0.625
 20
14.65
 30
0.0
 11
-15.25
 21
14.65
 31
0.0
  0
LINE
  5
2A1
330
29C
100
AcDbEntity
  8
Bemaßung
 62
     0
370
    -2
100
AcDbLine
 10
-14.0
 20
-12.15
 30
0.0
 11
-14.0
 21
12.15
 31
0.0
  0
SOLID
  5
2A2
330
29C
100
AcDbEntity
  8
Bemaßung
 62
     0
100
AcDbTrace
 10
-14.41666666666667
 20
-12.15
 30
0.0
 11
-13.58333333333333
 21
-12.15
 31
0.0
 12
-14.0
 22
-14.65
 32
0.0
 13
-14.0
 23
-14.65
 33
0.0
  0
SOLID
  5
2A3
330
29C
100
AcDbEntity
  8
Bemaßung
 62
     0
100
AcDbTrace
 10
-13.58333333333333
 20
12.15
 30
0.0
 11
-14.41666666666666
 21
12.15
 31
0.0
 12
-14.0
 22
14.65
 32
0.0
 13
-14.0
 23
14.65
 33
0.0
  0
MTEXT
  5
2A4
330
29C
100
AcDbEntity
  8
Bemaßung
 62
     0
100
AcDbMText
 10
-15.875
 20
0.0000000000000002
 30
0.0
 40
2.5
 41
0.0
 46
0.0
 71
     5
 72
     1
  1
\A1;29.3
  7
QCADDimTextStyle
 11
6.062651329011094E-17
 21
1.0
 31
0.0
 73
     1
 44
1.0
  0
POINT
  5
2A5
330
29C
100
AcDbEntity
  8
Defpoints
 62
     0
100
AcDbPoint
 10
0.0
 20
-14.65
 30
0.0
  0
POINT
  5
2A6
330
29C
100
AcDbEntity
  8
Defpoints
 62
     0
100
AcDbPoint
 10
0.0
 20
14.65
 30
0.0
  0
POINT
  5
2A7
330
29C
100
AcDbEntity
  8
Defpoints
 62
     0
100
AcDbPoint
 10
-14.0
 20
14.65
 30
0.0
  0
ENDBLK
  5
29E
330
29C
100
AcDbEntity
  8
0
100
AcDbBlockEnd
  0
BLOCK
  5
2A9
330
2A8
100
AcDbEntity
  8
0
100
AcDbBlockBegin
  2
*D4
 70
     1
 10
0.0
 20
0.0
 30
0.0
  3
*D4
  1
*D4
  0
LINE
  5
2AB
330
2A8
100
AcDbEntity
  8
Bemaßung
 62
     0
370
    -2
100
AcDbLine
 10
-0.625
 20
14.65
 30
0.0
 11
-4.25
 21
14.65
 31
0.0
  0
LINE
  5
2AC
330
2A8
100
AcDbEntity
  8
Bemaßung
 62
     0
370
    -2
100
AcDbLine
 10
6.375000000000003
 20
20.0
 30
0.0
 11
-4.25
 21
20.0
 31
0.0
  0
LINE
  5
2AD
330
2A8
100
AcDbEntity
  8
Bemaßung
 62
     0
370
    -2
100
AcDbLine
 10
-3.0
 20
12.15
 30
0.0
 11
-3.0
 21
9.65
 31
0.0
  0
LINE
  5
2AE
330
2A8
100
AcDbEntity
  8
Bemaßung
 62
     0
370
    -2
100
AcDbLine
 10
-3.0
 20
22.5
 30
0.0
 11
-3.0
 21
25.0
 31
0.0
  0
SOLID
  5
2AF
330
2A8
100
AcDbEntity
  8
Bemaßung
 62
     0
100
AcDbTrace
 10
-2.583333333333333
 20
12.15
 30
0.0
 11
-3.416666666666667
 21
12.15
 31
0.0
 12
-3.0
 22
14.65
 32
0.0
 13
-3.0
 23
14.65
 33
0.0
  0
SOLID
  5
2B0
330
2A8
100
AcDbEntity
  8
Bemaßung
 62
     0
100
AcDbTrace
 10
-3.416666666666666
 20
22.5
 30
0.0
 11
-2.583333333333333
 21
22.5
 31
0.0
 12
-3.0
 22
20.0
 32
0.0
 13
-3.0
 23
20.0
 33
0.0
  0
MTEXT
  5
2B1
330
2A8
100
AcDbEntity
  8
Bemaßung
 62
     0
100
AcDbMText
 10
-6.4375
 20
17.325
 30
0.0
 40
2.5
 41
0.0
 46
0.0
 71
     5
 72
     1
  1
\A1;5.35
  7
QCADDimTextStyle
 73
     1
 44
1.0
  0
POINT
  5
2B2
330
2A8
100
AcDbEntity
  8
Defpoints
 62
     0
100
AcDbPoint
 10
0.0
 20
14.65
 30
0.0
  0
POINT
  5
2B3
330
2A8
100
AcDbEntity
  8
Defpoints
 62
     0
100
AcDbPoint
 10
7.000000000000003
 20
20.0
 30
0.0
  0
POINT
  5
2B4
330
2A8
100
AcDbEntity
  8
Defpoints
 62
     0
100
AcDbPoint
 10
-3.0
 20
20.0
 30
0.0
  0
ENDBLK
  5
2AA
330
2A8
100
AcDbEntity
  8
0
100
AcDbBlockEnd
  0
BLOCK
  5
2B6
330
2B5
100
AcDbEntity
  8
0
100
AcDbBlockBegin
  2
*D5
 70
     1
 10
0.0
 20
0.0
 30
0.0
  3
*D5
  1
*D5
  0
LINE
  5
2B8
330
2B5
100
AcDbEntity
  8
Bemaßung
 62
     0
370
    -2
100
AcDbLine
 10
6.375000000000003
 20
20.0
 30
0.0
 11
2.75
 21
20.0
 31
0.0
  0
LINE
  5
2B9
330
2B5
100
AcDbEntity
  8
Bemaßung
 62
     0
370
    -2
100
AcDbLine
 10
8.375
 20
25.0
 30
0.0
 11
2.75
 21
25.0
 31
0.0
  0
LINE
  5
2BA
330
2B5
100
AcDbEntity
  8
Bemaßung
 62
     0
370
    -2
100
AcDbLine
 10
3.999999999999999
 20
17.5
 30
0.0
 11
3.999999999999999
 21
15.0
 31
0.0
  0
LINE
  5
2BB
330
2B5
100
AcDbEntity
  8
Bemaßung
 62
     0
370
    -2
100
AcDbLine
 10
4.0
 20
27.5
 30
0.0
 11
4.0
 21
30.0
 31
0.0
  0
SOLID
  5
2BC
330
2B5
100
AcDbEntity
  8
Bemaßung
 62
     0
100
AcDbTrace
 10
4.416666666666666
 20
17.5
 30
0.0
 11
3.583333333333333
 21
17.5
 31
0.0
 12
4.0
 22
20.0
 32
0.0
 13
4.0
 23
20.0
 33
0.0
  0
SOLID
  5
2BD
330
2B5
100
AcDbEntity
  8
Bemaßung
 62
     0
100
AcDbTrace
 10
3.583333333333333
 20
27.5
 30
0.0
 11
4.416666666666667
 21
27.5
 31
0.0
 12
4.0
 22
25.0
 32
0.0
 13
4.0
 23
25.0
 33
0.0
  0
MTEXT
  5
2BE
330
2B5
100
AcDbEntity
  8
Bemaßung
 62
     0
100
AcDbMText
 10
2.125
 20
22.5
 30
0.0
 40
2.5
 41
0.0
 46
0.0
 71
     5
 72
     1
  1
\A1;5
  7
QCADDimTextStyle
 11
8.881784197001253E-17
 21
1.0
 31
0.0
 73
     1
 44
1.0
  0
POINT
  5
2BF
330
2B5
100
AcDbEntity
  8
Defpoints
 62
     0
100
AcDbPoint
 10
7.000000000000003
 20
20.0
 30
0.0
  0
POINT
  5
2C0
330
2B5
100
AcDbEntity
  8
Defpoints
 62
     0
100
AcDbPoint
 10
9.0
 20
25.0
 30
0.0
  0
POINT
  5
2C1
330
2B5
100
AcDbEntity
  8
Defpoints
 62
     0
100
AcDbPoint
 10
4.0
 20
25.0
 30
0.0
  0
ENDBLK
  5
2B7
330
2B5
100
AcDbEntity
  8
0
100
AcDbBlockEnd
  0
BLOCK
  5
2C3
330
2C2
100
AcDbEntity
  8
0
100
AcDbBlockBegin
  2
*D6
 70
     1
 10
0.0
 20
0.0
 30
0.0
  3
*D6
  1
*D6
  0
LINE
  5
2C5
330
2C2
100
AcDbEntity
  8
Bemaßung
 62
     0
370
    -2
100
AcDbLine
 10
15.0
 20
20.625
 30
0.0
 11
15.0
 21
24.25
 31
0.0
  0
LINE
  5
2C6
330
2C2
100
AcDbEntity
  8
Bemaßung
 62
     0
370
    -2
100
AcDbLine
 10
42.0
 20
20.625
 30
0.0
 11
42.0
 21
24.25
 31
0.0
  0
LINE
  5
2C7
330
2C2
100
AcDbEntity
  8
Bemaßung
 62
     0
370
    -2
100
AcDbLine
 10
17.5
 20
23.0
 30
0.0
 11
39.5
 21
23.0
 31
0.0
  0
SOLID
  5
2C8
330
2C2
100
AcDbEntity
  8
Bemaßung
 62
     0
100
AcDbTrace
 10
17.5
 20
23.41666666666667
 30
0.0
 11
17.5
 21
22.58333333333333
 31
0.0
 12
15.0
 22
23.0
 32
0.0
 13
15.0
 23
23.0
 33
0.0
  0
SOLID
  5
2C9
330
2C2
100
AcDbEntity
  8
Bemaßung
 62
     0
100
AcDbTrace
 10
39.5
 20
22.58333333333333
 30
0.0
 11
39.5
 21
23.41666666666667
 31
0.0
 12
42.0
 22
23.0
 32
0.0
 13
42.0
 23
23.0
 33
0.0
  0
MTEXT
  5
2CA
330
2C2
100
AcDbEntity
  8
Bemaßung
 62
     0
100
AcDbMText
 10
28.5
 20
24.875
 30
0.0
 40
2.5
 41
0.0
 46
0.0
 71
     5
 72
     1
  1
\A1;27
  7
QCADDimTextStyle
 73
     1
 44
1.0
  0
POINT
  5
2CB
330
2C2
100
AcDbEntity
  8
Defpoints
 62
     0
100
AcDbPoint
 10
15.0
 20
20.0
 30
0.0
  0
POINT
  5
2CC
330
2C2
100
AcDbEntity
  8
Defpoints
 62
     0
100
AcDbPoint
 10
42.0
 20
20.0
 30
0.0
  0
POINT
  5
2CD
330
2C2
100
AcDbEntity
  8
Defpoints
 62
     0
100
AcDbPoint
 10
42.0
 20
23.0
 30
0.0
  0
ENDBLK
  5
2C4
330
2C2
100
AcDbEntity
  8
0
100
AcDbBlockEnd
  0
BLOCK
  5
2CF
330
2CE
100
AcDbEntity
  8
0
100
AcDbBlockBegin
  2
*D7
 70
     1
 10
0.0
 20
0.0
 30
0.0
  3
*D7
  1
*D7
  0
LINE
  5
2D1
330
2CE
100
AcDbEntity
  8
Bemaßung
 62
     0
370
    -2
100
AcDbLine
 10
13.0
 20
25.625
 30
0.0
 11
13.0
 21
27.25
 31
0.0
  0
LINE
  5
2D2
330
2CE
100
AcDbEntity
  8
Bemaßung
 62
     0
370
    -2
100
AcDbLine
 10
15.0
 20
24.875
 30
0.0
 11
15.0
 21
27.25
 31
0.0
  0
LINE
  5
2D3
330
2CE
100
AcDbEntity
  8
Bemaßung
 62
     0
370
    -2
100
AcDbLine
 10
10.5
 20
26.0
 30
0.0
 11
8.0
 21
26.0
 31
0.0
  0
LINE
  5
2D4
330
2CE
100
AcDbEntity
  8
Bemaßung
 62
     0
370
    -2
100
AcDbLine
 10
17.5
 20
26.0
 30
0.0
 11
20.0
 21
26.0
 31
0.0
  0
SOLID
  5
2D5
330
2CE
100
AcDbEntity
  8
Bemaßung
 62
     0
100
AcDbTrace
 10
10.5
 20
25.58333333333333
 30
0.0
 11
10.5
 21
26.41666666666667
 31
0.0
 12
13.0
 22
26.0
 32
0.0
 13
13.0
 23
26.0
 33
0.0
  0
SOLID
  5
2D6
330
2CE
100
AcDbEntity
  8
Bemaßung
 62
     0
100
AcDbTrace
 10
17.5
 20
26.41666666666667
 30
0.0
 11
17.5
 21
25.58333333333333
 31
0.0
 12
15.0
 22
26.0
 32
0.0
 13
15.0
 23
26.0
 33
0.0
  0
MTEXT
  5
2D7
330
2CE
100
AcDbEntity
  8
Bemaßung
 62
     0
100
AcDbMText
 10
14.0
 20
29.4375
 30
0.0
 40
2.5
 41
0.0
 46
0.0
 71
     5
 72
     1
  1
\A1;2
  7
QCADDimTextStyle
 73
     1
 44
1.0
  0
POINT
  5
2D8
330
2CE
100
AcDbEntity
  8
Defpoints
 62
     0
100
AcDbPoint
 10
13.0
 20
25.0
 30
0.0
  0
POINT
  5
2D9
330
2CE
100
AcDbEntity
  8
Defpoints
 62
     0
100
AcDbPoint
 10
15.0
 20
24.25
 30
0.0
  0
POINT
  5
2DA
330
2CE
100
AcDbEntity
  8
Defpoints
 62
     0
100
AcDbPoint
 10
15.0
 20
26.0
 30
0.0
  0
ENDBLK
  5
2D0
330
2CE
100
AcDbEntity
  8
0
100
AcDbBlockEnd
  0
BLOCK
  5
2DC
330
2DB
100
AcDbEntity
  8
0
100
AcDbBlockBegin
  2
*D8
 70
     1
 10
0.0
 20
0.0
 30
0.0
  3
*D8
  1
*D8
  0
LINE
  5
2DE
330
2DB
100
AcDbEntity
  8
Bemaßung
 62
     0
370
    -2
100
AcDbLine
 10
44.0
 20
25.625
 30
0.0
 11
44.0
 21
29.25
 31
0.0
  0
LINE
  5
2DF
330
2DB
100
AcDbEntity
  8
Bemaßung
 62
     0
370
    -2
100
AcDbLine
 10
48.0
 20
25.625
 30
0.0
 11
48.0
 21
29.25
 31
0.0
  0
LINE
  5
2E0
330
2DB
100
AcDbEntity
  8
Bemaßung
 62
     0
370
    -2
100
AcDbLine
 10
41.5
 20
28.0
 30
0.0
 11
39.0
 21
28.0
 31
0.0
  0
LINE
  5
2E1
330
2DB
100
AcDbEntity
  8
Bemaßung
 62
     0
370
    -2
100
AcDbLine
 10
50.5
 20
28.0
 30
0.0
 11
53.0
 21
28.0
 31
0.0
  0
SOLID
  5
2E2
330
2DB
100
AcDbEntity
  8
Bemaßung
 62
     0
100
AcDbTrace
 10
41.5
 20
27.58333333333333
 30
0.0
 11
41.5
 21
28.41666666666667
 31
0.0
 12
44.0
 22
28.0
 32
0.0
 13
44.0
 23
28.0
 33
0.0
  0
SOLID
  5
2E3
330
2DB
100
AcDbEntity
  8
Bemaßung
 62
     0
100
AcDbTrace
 10
50.5
 20
28.41666666666667
 30
0.0
 11
50.5
 21
27.58333333333333
 31
0.0
 12
48.0
 22
28.0
 32
0.0
 13
48.0
 23
28.0
 33
0.0
  0
MTEXT
  5
2E4
330
2DB
100
AcDbEntity
  8
Bemaßung
 62
     0
100
AcDbMText
 10
46.0
 20
29.875
 30
0.0
 40
2.5
 41
0.0
 46
0.0
 71
     5
 72
     1
  1
\A1;4
  7
QCADDimTextStyle
 73
     1
 44
1.0
  0
POINT
  5
2E5
330
2DB
100
AcDbEntity
  8
Defpoints
 62
     0
100
AcDbPoint
 10
44.0
 20
25.0
 30
0.0
  0
POINT
  5
2E6
330
2DB
100
AcDbEntity
  8
Defpoints
 62
     0
100
AcDbPoint
 10
48.0
 20
25.0
 30
0.0
  0
POINT
  5
2E7
330
2DB
100
AcDbEntity
  8
Defpoints
 62
     0
100
AcDbPoint
 10
48.0
 20
28.0
 30
0.0
  0
ENDBLK
  5
2DD
330
2DB
100
AcDbEntity
  8
0
100
AcDbBlockEnd
  0
BLOCK
  5
2E9
330
2E8
100
AcDbEntity
  8
0
100
AcDbBlockBegin
  2
*D9
 70
     1
 10
0.0
 20
0.0
 30
0.0
  3
*D9
  1
*D9
  0
LINE
  5
2EB
330
2E8
100
AcDbEntity
  8
Bemaßung
 62
     0
370
    -2
100
AcDbLine
 10
11.0
 20
-25.625
 30
0.0
 11
11.0
 21
-28.25
 31
0.0
  0
LINE
  5
2EC
330
2E8
100
AcDbEntity
  8
Bemaßung
 62
     0
370
    -2
100
AcDbLine
 10
46.0
 20
-25.625
 30
0.0
 11
46.0
 21
-28.25
 31
0.0
  0
LINE
  5
2ED
330
2E8
100
AcDbEntity
  8
Bemaßung
 62
     0
370
    -2
100
AcDbLine
 10
13.5
 20
-27.0
 30
0.0
 11
43.5
 21
-27.0
 31
0.0
  0
SOLID
  5
2EE
330
2E8
100
AcDbEntity
  8
Bemaßung
 62
     0
100
AcDbTrace
 10
13.5
 20
-26.58333333333333
 30
0.0
 11
13.5
 21
-27.41666666666667
 31
0.0
 12
11.0
 22
-27.0
 32
0.0
 13
11.0
 23
-27.0
 33
0.0
  0
SOLID
  5
2EF
330
2E8
100
AcDbEntity
  8
Bemaßung
 62
     0
100
AcDbTrace
 10
43.5
 20
-27.41666666666667
 30
0.0
 11
43.5
 21
-26.58333333333333
 31
0.0
 12
46.0
 22
-27.0
 32
0.0
 13
46.0
 23
-27.0
 33
0.0
  0
MTEXT
  5
2F0
330
2E8
100
AcDbEntity
  8
Bemaßung
 62
     0
100
AcDbMText
 10
28.5
 20
-25.125
 30
0.0
 40
2.5
 41
0.0
 46
0.0
 71
     5
 72
     1
  1
\A1;35
  7
QCADDimTextStyle
 73
     1
 44
1.0
  0
POINT
  5
2F1
330
2E8
100
AcDbEntity
  8
Defpoints
 62
     0
100
AcDbPoint
 10
11.0
 20
-25.0
 30
0.0
  0
POINT
  5
2F2
330
2E8
100
AcDbEntity
  8
Defpoints
 62
     0
100
AcDbPoint
 10
46.0
 20
-25.0
 30
0.0
  0
POINT
  5
2F3
330
2E8
100
AcDbEntity
  8
Defpoints
 62
     0
100
AcDbPoint
 10
46.0
 20
-27.0
 30
0.0
  0
ENDBLK
  5
2EA
330
2E8
100
AcDbEntity
  8
0
100
AcDbBlockEnd
  0
BLOCK
  5
2F5
330
2F4
100
AcDbEntity
  8
0
100
AcDbBlockBegin
  2
*D10
 70
     1
 10
0.0
 20
0.0
 30
0.0
  3
*D10
  1
*D10
  0
LINE
  5
2F7
330
2F4
100
AcDbEntity
  8
Bemaßung
 62
     0
370
    -2
100
AcDbLine
 10
162.625
 20
-14.65
 30
0.0
 11
169.8038639506173
 21
-14.65
 31
0.0
  0
LINE
  5
2F8
330
2F4
100
AcDbEntity
  8
Bemaßung
 62
     0
370
    -2
100
AcDbLine
 10
162.625
 20
-10.45
 30
0.0
 11
169.8038639506173
 21
-10.45
 31
0.0
  0
LINE
  5
2F9
330
2F4
100
AcDbEntity
  8
Bemaßung
 62
     0
370
    -2
100
AcDbLine
 10
168.5538639506173
 20
-17.15
 30
0.0
 11
168.5538639506173
 21
-19.65
 31
0.0
  0
LINE
  5
2FA
330
2F4
100
AcDbEntity
  8
Bemaßung
 62
     0
370
    -2
100
AcDbLine
 10
168.5538639506173
 20
-7.949999999999999
 30
0.0
 11
168.5538639506173
 21
-5.449999999999999
 31
0.0
  0
SOLID
  5
2FB
330
2F4
100
AcDbEntity
  8
Bemaßung
 62
     0
100
AcDbTrace
 10
168.970530617284
 20
-17.15
 30
0.0
 11
168.1371972839507
 21
-17.15
 31
0.0
 12
168.5538639506173
 22
-14.65
 32
0.0
 13
168.5538639506173
 23
-14.65
 33
0.0
  0
SOLID
  5
2FC
330
2F4
100
AcDbEntity
  8
Bemaßung
 62
     0
100
AcDbTrace
 10
168.1371972839507
 20
-7.949999999999999
 30
0.0
 11
168.970530617284
 21
-7.949999999999999
 31
0.0
 12
168.5538639506173
 22
-10.45
 32
0.0
 13
168.5538639506173
 23
-10.45
 33
0.0
  0
MTEXT
  5
2FD
330
2F4
100
AcDbEntity
  8
Bemaßung
 62
     0
100
AcDbMText
 10
171.9913639506173
 20
-12.55
 30
0.0
 40
2.5
 41
0.0
 46
0.0
 71
     5
 72
     1
  1
\A1;4.2
  7
QCADDimTextStyle
 73
     1
 44
1.0
  0
POINT
  5
2FE
330
2F4
100
AcDbEntity
  8
Defpoints
 62
     0
100
AcDbPoint
 10
162.0
 20
-14.65
 30
0.0
  0
POINT
  5
2FF
330
2F4
100
AcDbEntity
  8
Defpoints
 62
     0
100
AcDbPoint
 10
162.0
 20
-10.45
 30
0.0
  0
POINT
  5
300
330
2F4
100
AcDbEntity
  8
Defpoints
 62
     0
100
AcDbPoint
 10
168.5538639506173
 20
-10.45
 30
0.0
  0
ENDBLK
  5
2F6
330
2F4
100
AcDbEntity
  8
0
100
AcDbBlockEnd
  0
ENDSEC
  0
SECTION
  2
ENTITIES
  0
LINE
  5
38
330
1C1
100
AcDbEntity
  8
Hilfslinien
100
AcDbLine
 10
0.0
 20
0.0
 30
0.0
 11
162.0
 21
0.0
 31
0.0
  0
LINE
  5
39
330
1C1
100
AcDbEntity
  8
Hilfslinien
100
AcDbLine
 10
0.0
 20
-30.0
 30
0.0
 11
0.0
 21
30.0
 31
0.0
  0
LINE
  5
3A
330
1C1
100
AcDbEntity
  8
Hilfslinien
100
AcDbLine
 10
7.0
 20
-30.0
 30
0.0
 11
7.000000000000004
 21
30.0
 31
0.0
  0
LINE
  5
3B
330
1C1
100
AcDbEntity
  8
Hilfslinien
100
AcDbLine
 10
15.0
 20
-30.0
 30
0.0
 11
15.0
 21
30.0
 31
0.0
  0
LINE
  5
3C
330
1C1
100
AcDbEntity
  8
Hilfslinien
100
AcDbLine
 10
0.0
 20
20.0
 30
0.0
 11
162.0
 21
20.0
 31
0.0
  0
LINE
  5
3D
330
1C1
100
AcDbEntity
  8
Hilfslinien
100
AcDbLine
 10
0.0
 20
-20.0
 30
0.0
 11
162.0
 21
-20.0
 31
0.0
  0
LINE
  5
3E
330
1C1
100
AcDbEntity
  8
Hilfslinien
100
AcDbLine
 10
0.0
 20
10.45
 30
0.0
 11
162.0
 21
10.45
 31
0.0
  0
LINE
  5
3F
330
1C1
100
AcDbEntity
  8
Hilfslinien
100
AcDbLine
 10
0.0
 20
-10.45
 30
0.0
 11
162.0
 21
-10.45
 31
0.0
  0
LINE
  5
40
330
1C1
100
AcDbEntity
  8
Hilfslinien
100
AcDbLine
 10
0.0
 20
14.65
 30
0.0
 11
162.0
 21
14.65
 31
0.0
  0
LINE
  5
41
330
1C1
100
AcDbEntity
  8
Hilfslinien
100
AcDbLine
 10
0.0
 20
-14.65
 30
0.0
 11
162.0
 21
-14.65
 31
0.0
  0
LINE
  5
42
330
1C1
100
AcDbEntity
  8
Hilfslinien
100
AcDbLine
 10
162.0
 20
-30.0
 30
0.0
 11
162.0
 21
30.0
 31
0.0
  0
LINE
  5
43
330
1C1
100
AcDbEntity
  8
Kanten
100
AcDbLine
 10
7.000000000000003
 20
20.0
 30
0.0
 11
15.0
 21
20.0
 31
0.0
  0
LINE
  5
44
330
1C1
100
AcDbEntity
  8
Kanten
100
AcDbLine
 10
15.0
 20
20.0
 30
0.0
 11
15.0
 21
-20.0
 31
0.0
  0
LINE
  5
45
330
1C1
100
AcDbEntity
  8
Kanten
100
AcDbLine
 10
15.0
 20
-20.0
 30
0.0
 11
7.000000000000003
 21
-20.0
 31
0.0
  0
LINE
  5
46
330
1C1
100
AcDbEntity
  8
Kanten
100
AcDbLine
 10
7.000000000000003
 20
-20.0
 30
0.0
 11
7.000000000000003
 21
20.0
 31
0.0
  0
LINE
  5
47
330
1C1
100
AcDbEntity
  8
Kanten
100
AcDbLine
 10
0.0
 20
14.65
 30
0.0
 11
162.0
 21
14.65
 31
0.0
  0
LINE
  5
48
330
1C1
100
AcDbEntity
  8
Kanten
100
AcDbLine
 10
162.0
 20
14.65
 30
0.0
 11
162.0
 21
10.45
 31
0.0
  0
LINE
  5
49
330
1C1
100
AcDbEntity
  8
Kanten
100
AcDbLine
 10
162.0
 20
10.45
 30
0.0
 11
0.0
 21
10.45
 31
0.0
  0
LINE
  5
4A
330
1C1
100
AcDbEntity
  8
Kanten
100
AcDbLine
 10
0.0
 20
10.45
 30
0.0
 11
0.0
 21
14.65
 31
0.0
  0
LINE
  5
4B
330
1C1
100
AcDbEntity
  8
Kanten
100
AcDbLine
 10
0.0
 20
-10.45
 30
0.0
 11
162.0
 21
-10.45
 31
0.0
  0
LINE
  5
4C
330
1C1
100
AcDbEntity
  8
Kanten
100
AcDbLine
 10
162.0
 20
-10.45
 30
0.0
 11
162.0
 21
-14.65
 31
0.0
  0
LINE
  5
4D
330
1C1
100
AcDbEntity
  8
Kanten
100
AcDbLine
 10
162.0
 20
-14.65
 30
0.0
 11
0.0
 21
-14.65
 31
0.0
  0
LINE
  5
4E
330
1C1
100
AcDbEntity
  8
Kanten
100
AcDbLine
 10
0.0
 20
-14.65
 30
0.0
 11
0.0
 21
-10.45
 31
0.0
  0
LINE
  5
4F
330
1C1
100
AcDbEntity
  8
Hilfslinien
100
AcDbLine
 10
42.0
 20
-30.0
 30
0.0
 11
42.00000000000001
 21
30.0
 31
0.0
  0
LINE
  5
50
330
1C1
100
AcDbEntity
  8
Hilfslinien
100
AcDbLine
 10
50.0
 20
-30.0
 30
0.0
 11
50.00000000000001
 21
30.0
 31
0.0
  0
LINE
  5
51
330
1C1
100
AcDbEntity
  8
Hilfslinien
100
AcDbLine
 10
77.0
 20
-30.0
 30
0.0
 11
77.0
 21
30.0
 31
0.0
  0
LINE
  5
52
330
1C1
100
AcDbEntity
  8
Hilfslinien
100
AcDbLine
 10
85.0
 20
-30.0
 30
0.0
 11
85.0
 21
30.0
 31
0.0
  0
LINE
  5
53
330
1C1
100
AcDbEntity
  8
Hilfslinien
100
AcDbLine
 10
112.0
 20
-30.0
 30
0.0
 11
112.0
 21
30.0
 31
0.0
  0
LINE
  5
54
330
1C1
100
AcDbEntity
  8
Hilfslinien
100
AcDbLine
 10
120.0
 20
-30.0
 30
0.0
 11
120.0
 21
30.0
 31
0.0
  0
LINE
  5
55
330
1C1
100
AcDbEntity
  8
Hilfslinien
100
AcDbLine
 10
147.0
 20
-30.0
 30
0.0
 11
147.0
 21
30.0
 31
0.0
  0
LINE
  5
56
330
1C1
100
AcDbEntity
  8
Hilfslinien
100
AcDbLine
 10
155.0
 20
-30.0
 30
0.0
 11
155.0
 21
30.0
 31
0.0
  0
LINE
  5
57
330
1C1
100
AcDbEntity
  8
Kanten
100
AcDbLine
 10
42.0
 20
20.0
 30
0.0
 11
50.0
 21
20.0
 31
0.0
  0
LINE
  5
58
330
1C1
100
AcDbEntity
  8
Kanten
100
AcDbLine
 10
50.0
 20
20.0
 30
0.0
 11
50.0
 21
-20.0
 31
0.0
  0
LINE
  5
59
330
1C1
100
AcDbEntity
  8
Kanten
100
AcDbLine
 10
50.0
 20
-20.0
 30
0.0
 11
42.0
 21
-20.0
 31
0.0
  0
LINE
  5
5A
330
1C1
100
AcDbEntity
  8
Kanten
100
AcDbLine
 10
42.0
 20
-20.0
 30
0.0
 11
42.0
 21
20.0
 31
0.0
  0
LINE
  5
5B
330
1C1
100
AcDbEntity
  8
Kanten
100
AcDbLine
 10
77.0
 20
20.0
 30
0.0
 11
85.0
 21
20.0
 31
0.0
  0
LINE
  5
5C
330
1C1
100
AcDbEntity
  8
Kanten
100
AcDbLine
 10
85.0
 20
20.0
 30
0.0
 11
85.0
 21
-20.0
 31
0.0
  0
LINE
  5
5D
330
1C1
100
AcDbEntity
  8
Kanten
100
AcDbLine
 10
85.0
 20
-20.0
 30
0.0
 11
77.0
 21
-20.0
 31
0.0
  0
LINE
  5
5E
330
1C1
100
AcDbEntity
  8
Kanten
100
AcDbLine
 10
77.0
 20
-20.0
 30
0.0
 11
77.0
 21
20.0
 31
0.0
  0
LINE
  5
5F
330
1C1
100
AcDbEntity
  8
Kanten
100
AcDbLine
 10
112.0
 20
20.0
 30
0.0
 11
120.0
 21
20.0
 31
0.0
  0
LINE
  5
60
330
1C1
100
AcDbEntity
  8
Kanten
100
AcDbLine
 10
120.0
 20
20.0
 30
0.0
 11
120.0
 21
-20.0
 31
0.0
  0
LINE
  5
61
330
1C1
100
AcDbEntity
  8
Kanten
100
AcDbLine
 10
120.0
 20
-20.0
 30
0.0
 11
112.0
 21
-20.0
 31
0.0
  0
LINE
  5
62
330
1C1
100
AcDbEntity
  8
Kanten
100
AcDbLine
 10
112.0
 20
-20.0
 30
0.0
 11
112.0
 21
20.0
 31
0.0
  0
LINE
  5
63
330
1C1
100
AcDbEntity
  8
Kanten
100
AcDbLine
 10
147.0
 20
20.0
 30
0.0
 11
155.0
 21
20.0
 31
0.0
  0
LINE
  5
64
330
1C1
100
AcDbEntity
  8
Kanten
100
AcDbLine
 10
155.0
 20
20.0
 30
0.0
 11
155.0
 21
-20.0
 31
0.0
  0
LINE
  5
65
330
1C1
100
AcDbEntity
  8
Kanten
100
AcDbLine
 10
155.0
 20
-20.0
 30
0.0
 11
147.0
 21
-20.0
 31
0.0
  0
LINE
  5
66
330
1C1
100
AcDbEntity
  8
Kanten
100
AcDbLine
 10
147.0
 20
-20.0
 30
0.0
 11
147.0
 21
20.0
 31
0.0
  0
LINE
  5
8B
330
1C1
100
AcDbEntity
  8
Kanten
100
AcDbLine
 10
149.0
 20
-25.0
 30
0.0
 11
153.0
 21
-25.0
 31
0.0
  0
LINE
  5
87
330
1C1
100
AcDbEntity
  8
Kanten
100
AcDbLine
 10
114.0
 20
-25.0
 30
0.0
 11
118.0
 21
-25.0
 31
0.0
  0
LINE
  5
83
330
1C1
100
AcDbEntity
  8
Kanten
100
AcDbLine
 10
79.0
 20
-25.0
 30
0.0
 11
83.0
 21
-25.0
 31
0.0
  0
LINE
  5
7F
330
1C1
100
AcDbEntity
  8
Kanten
100
AcDbLine
 10
44.0
 20
-25.0
 30
0.0
 11
48.0
 21
-25.0
 31
0.0
  0
LINE
  5
7B
330
1C1
100
AcDbEntity
  8
Kanten
100
AcDbLine
 10
9.0
 20
-25.0
 30
0.0
 11
13.0
 21
-25.0
 31
0.0
  0
LINE
  5
77
330
1C1
100
AcDbEntity
  8
Kanten
100
AcDbLine
 10
149.0
 20
20.0
 30
0.0
 11
153.0
 21
20.0
 31
0.0
  0
LINE
  5
73
330
1C1
100
AcDbEntity
  8
Kanten
100
AcDbLine
 10
114.0
 20
20.0
 30
0.0
 11
118.0
 21
20.0
 31
0.0
  0
LINE
  5
6F
330
1C1
100
AcDbEntity
  8
Kanten
100
AcDbLine
 10
79.0
 20
20.0
 30
0.0
 11
83.0
 21
20.0
 31
0.0
  0
LINE
  5
6B
330
1C1
100
AcDbEntity
  8
Kanten
100
AcDbLine
 10
44.0
 20
20.0
 30
0.0
 11
48.0
 21
20.0
 31
0.0
  0
LINE
  5
67
330
1C1
100
AcDbEntity
  8
Kanten
100
AcDbLine
 10
9.0
 20
20.0
 30
0.0
 11
13.0
 21
20.0
 31
0.0
  0
LINE
  5
8C
330
1C1
100
AcDbEntity
  8
Kanten
100
AcDbLine
 10
153.0
 20
-25.0
 30
0.0
 11
153.0
 21
-20.0
 31
0.0
  0
LINE
  5
88
330
1C1
100
AcDbEntity
  8
Kanten
100
AcDbLine
 10
118.0
 20
-25.0
 30
0.0
 11
118.0
 21
-20.0
 31
0.0
  0
LINE
  5
84
330
1C1
100
AcDbEntity
  8
Kanten
100
AcDbLine
 10
83.0
 20
-25.0
 30
0.0
 11
83.0
 21
-20.0
 31
0.0
  0
LINE
  5
80
330
1C1
100
AcDbEntity
  8
Kanten
100
AcDbLine
 10
48.0
 20
-25.0
 30
0.0
 11
48.0
 21
-20.0
 31
0.0
  0
LINE
  5
7C
330
1C1
100
AcDbEntity
  8
Kanten
100
AcDbLine
 10
13.0
 20
-25.0
 30
0.0
 11
13.0
 21
-20.0
 31
0.0
  0
LINE
  5
78
330
1C1
100
AcDbEntity
  8
Kanten
100
AcDbLine
 10
153.0
 20
20.0
 30
0.0
 11
153.0
 21
25.0
 31
0.0
  0
LINE
  5
74
330
1C1
100
AcDbEntity
  8
Kanten
100
AcDbLine
 10
118.0
 20
20.0
 30
0.0
 11
118.0
 21
25.0
 31
0.0
  0
LINE
  5
70
330
1C1
100
AcDbEntity
  8
Kanten
100
AcDbLine
 10
83.0
 20
20.0
 30
0.0
 11
83.0
 21
25.0
 31
0.0
  0
LINE
  5
6C
330
1C1
100
AcDbEntity
  8
Kanten
100
AcDbLine
 10
48.0
 20
20.0
 30
0.0
 11
48.0
 21
25.0
 31
0.0
  0
LINE
  5
68
330
1C1
100
AcDbEntity
  8
Kanten
100
AcDbLine
 10
13.0
 20
20.0
 30
0.0
 11
13.0
 21
25.0
 31
0.0
  0
LINE
  5
8D
330
1C1
100
AcDbEntity
  8
Kanten
100
AcDbLine
 10
153.0
 20
-20.0
 30
0.0
 11
149.0
 21
-20.0
 31
0.0
  0
LINE
  5
89
330
1C1
100
AcDbEntity
  8
Kanten
100
AcDbLine
 10
118.0
 20
-20.0
 30
0.0
 11
114.0
 21
-20.0
 31
0.0
  0
LINE
  5
85
330
1C1
100
AcDbEntity
  8
Kanten
100
AcDbLine
 10
83.0
 20
-20.0
 30
0.0
 11
79.0
 21
-20.0
 31
0.0
  0
LINE
  5
81
330
1C1
100
AcDbEntity
  8
Kanten
100
AcDbLine
 10
48.0
 20
-20.0
 30
0.0
 11
44.0
 21
-20.0
 31
0.0
  0
LINE
  5
7D
330
1C1
100
AcDbEntity
  8
Kanten
100
AcDbLine
 10
13.0
 20
-20.0
 30
0.0
 11
9.0
 21
-20.0
 31
0.0
  0
LINE
  5
79
330
1C1
100
AcDbEntity
  8
Kanten
100
AcDbLine
 10
153.0
 20
25.0
 30
0.0
 11
149.0
 21
25.0
 31
0.0
  0
LINE
  5
75
330
1C1
100
AcDbEntity
  8
Kanten
100
AcDbLine
 10
118.0
 20
25.0
 30
0.0
 11
114.0
 21
25.0
 31
0.0
  0
LINE
  5
71
330
1C1
100
AcDbEntity
  8
Kanten
100
AcDbLine
 10
83.0
 20
25.0
 30
0.0
 11
79.0
 21
25.0
 31
0.0
  0
LINE
  5
6D
330
1C1
100
AcDbEntity
  8
Kanten
100
AcDbLine
 10
48.0
 20
25.0
 30
0.0
 11
44.0
 21
25.0
 31
0.0
  0
LINE
  5
69
330
1C1
100
AcDbEntity
  8
Kanten
100
AcDbLine
 10
13.0
 20
25.0
 30
0.0
 11
9.0
 21
25.0
 31
0.0
  0
LINE
  5
8E
330
1C1
100
AcDbEntity
  8
Kanten
100
AcDbLine
 10
149.0
 20
-20.0
 30
0.0
 11
149.0
 21
-25.0
 31
0.0
  0
LINE
  5
8A
330
1C1
100
AcDbEntity
  8
Kanten
100
AcDbLine
 10
114.0
 20
-20.0
 30
0.0
 11
114.0
 21
-25.0
 31
0.0
  0
LINE
  5
86
330
1C1
100
AcDbEntity
  8
Kanten
100
AcDbLine
 10
79.0
 20
-20.0
 30
0.0
 11
79.0
 21
-25.0
 31
0.0
  0
LINE
  5
82
330
1C1
100
AcDbEntity
  8
Kanten
100
AcDbLine
 10
44.0
 20
-20.0
 30
0.0
 11
44.0
 21
-25.0
 31
0.0
  0
LINE
  5
7E
330
1C1
100
AcDbEntity
  8
Kanten
100
AcDbLine
 10
9.0
 20
-20.0
 30
0.0
 11
9.0
 21
-25.0
 31
0.0
  0
LINE
  5
7A
330
1C1
100
AcDbEntity
  8
Kanten
100
AcDbLine
 10
149.0
 20
25.0
 30
0.0
 11
149.0
 21
20.0
 31
0.0
  0
LINE
  5
76
330
1C1
100
AcDbEntity
  8
Kanten
100
AcDbLine
 10
114.0
 20
25.0
 30
0.0
 11
114.0
 21
20.0
 31
0.0
  0
LINE
  5
72
330
1C1
100
AcDbEntity
  8
Kanten
100
AcDbLine
 10
79.0
 20
25.0
 30
0.0
 11
79.0
 21
20.0
 31
0.0
  0
LINE
  5
6E
330
1C1
100
AcDbEntity
  8
Kanten
100
AcDbLine
 10
44.0
 20
25.0
 30
0.0
 11
44.0
 21
20.0
 31
0.0
  0
LINE
  5
6A
330
1C1
100
AcDbEntity
  8
Kanten
100
AcDbLine
 10
9.0
 20
25.0
 30
0.0
 11
9.0
 21
20.0
 31
0.0
  0
DIMENSION
  5
8F
330
1C1
100
AcDbEntity
  8
Bemaßung
100
AcDbDimension
280
     0
  2
*D1
 10
-3.0
 20
10.45
 30
0.0
 11
-6.4375
 21
5.225
 31
0.0
 70
    32
 71
     5
 42
10.45
 73
     0
 74
     0
 75
     0
  3
QCADDimStyle
100
AcDbAlignedDimension
 13
7.000000000000002
 23
0.0
 33
0.0
 14
0.0
 24
10.45
 34
0.0
 50
90.0
100
AcDbRotatedDimension
1001
ACAD
1000
DSTYLE
1002
{
1070
   279
1070
     2
1070
    41
1040
2.5
1070
    79
1070
     2
1070
   176
1070
     0
1070
   177
1070
     0
1070
   178
1070
     0
1070
    44
1040
1.25
1070
    42
1040
0.625
1070
   147
1040
0.625
1070
   140
1040
2.5
1070
    78
1070
     8
1002
}
  0
DIMENSION
  5
90
330
1C1
100
AcDbEntity
  8
Bemaßung
100
AcDbDimension
280
     0
  2
*D2
 10
-8.999999999999996
 20
10.45
 30
0.0
 11
-10.875
 21
0.0000000000000002
 31
0.0
 70
    32
 71
     5
 42
20.9
 73
     0
 74
     0
 75
     0
  3
QCADDimStyle
100
AcDbAlignedDimension
 13
0.0
 23
-10.45
 33
0.0
 14
0.0
 24
10.45
 34
0.0
 50
90.0
100
AcDbRotatedDimension
1001
ACAD
1000
DSTYLE
1002
{
1070
   279
1070
     2
1070
    41
1040
2.5
1070
    79
1070
     2
1070
   176
1070
     0
1070
   177
1070
     0
1070
   178
1070
     0
1070
    44
1040
1.25
1070
    42
1040
0.625
1070
   147
1040
0.625
1070
   140
1040
2.5
1070
    78
1070
     8
1002
}
  0
DIMENSION
  5
91
330
1C1
100
AcDbEntity
  8
Bemaßung
100
AcDbDimension
280
     0
  2
*D3
 10
-14.0
 20
14.65
 30
0.0
 11
-15.875
 21
0.0000000000000002
 31
0.0
 70
   160
 71
     5
 42
29.3
 73
     0
 74
     0
 75
     0
  3
QCADDimStyle
100
AcDbAlignedDimension
 13
0.0
 23
-14.65
 33
0.0
 14
0.0
 24
14.65
 34
0.0
 50
90.0
100
AcDbRotatedDimension
1001
ACAD
1000
DSTYLE
1002
{
1070
   279
1070
     2
1070
    41
1040
2.5
1070
    79
1070
     2
1070
   176
1070
     0
1070
   177
1070
     0
1070
   178
1070
     0
1070
    44
1040
1.25
1070
    42
1040
0.625
1070
   147
1040
0.625
1070
   140
1040
2.5
1070
    78
1070
     8
1002
}
  0
DIMENSION
  5
92
330
1C1
100
AcDbEntity
  8
Bemaßung
100
AcDbDimension
280
     0
  2
*D4
 10
-3.0
 20
20.0
 30
0.0
 11
-6.4375
 21
17.325
 31
0.0
 70
    32
 71
     5
 42
5.35
 73
     0
 74
     0
 75
     0
  3
QCADDimStyle
100
AcDbAlignedDimension
 13
0.0
 23
14.65
 33
0.0
 14
7.000000000000003
 24
20.0
 34
0.0
 50
90.0
100
AcDbRotatedDimension
1001
ACAD
1000
DSTYLE
1002
{
1070
   279
1070
     2
1070
    41
1040
2.5
1070
    79
1070
     2
1070
   176
1070
     0
1070
   177
1070
     0
1070
   178
1070
     0
1070
    44
1040
1.25
1070
    42
1040
0.625
1070
   147
1040
0.625
1070
   140
1040
2.5
1070
    78
1070
     8
1002
}
  0
DIMENSION
  5
93
330
1C1
100
AcDbEntity
  8
Bemaßung
100
AcDbDimension
280
     0
  2
*D5
 10
4.0
 20
25.0
 30
0.0
 11
2.125
 21
22.5
 31
0.0
 70
    32
 71
     5
 42
5.0
 73
     0
 74
     0
 75
     0
  3
QCADDimStyle
100
AcDbAlignedDimension
 13
7.000000000000003
 23
20.0
 33
0.0
 14
9.0
 24
25.0
 34
0.0
 50
90.0
100
AcDbRotatedDimension
1001
ACAD
1000
DSTYLE
1002
{
1070
   279
1070
     2
1070
    41
1040
2.5
1070
    79
1070
     2
1070
   176
1070
     0
1070
   177
1070
     0
1070
   178
1070
     0
1070
    44
1040
1.25
1070
    42
1040
0.625
1070
   147
1040
0.625
1070
   140
1040
2.5
1070
    78
1070
     8
1002
}
  0
LINE
  5
94
330
1C1
100
AcDbEntity
  8
Hilfslinien
100
AcDbLine
 10
11.0
 20
-30.0
 30
0.0
 11
11.0
 21
30.0
 31
0.0
  0
LINE
  5
95
330
1C1
100
AcDbEntity
  8
Hilfslinien
100
AcDbLine
 10
46.0
 20
-30.0
 30
0.0
 11
46.00000000000001
 21
30.0
 31
0.0
  0
DIMENSION
  5
96
330
1C1
100
AcDbEntity
  8
Bemaßung
100
AcDbDimension
280
     0
  2
*D6
 10
42.0
 20
23.0
 30
0.0
 11
28.5
 21
24.875
 31
0.0
 70
    32
 71
     5
 42
27.0
 73
     0
 74
     0
 75
     0
  3
QCADDimStyle
100
AcDbAlignedDimension
 13
15.0
 23
20.0
 33
0.0
 14
42.0
 24
20.0
 34
0.0
100
AcDbRotatedDimension
1001
ACAD
1000
DSTYLE
1002
{
1070
   279
1070
     2
1070
    41
1040
2.5
1070
    79
1070
     2
1070
   176
1070
     0
1070
   177
1070
     0
1070
   178
1070
     0
1070
    44
1040
1.25
1070
    42
1040
0.625
1070
   147
1040
0.625
1070
   140
1040
2.5
1070
    78
1070
     8
1002
}
  0
DIMENSION
  5
97
330
1C1
100
AcDbEntity
  8
Bemaßung
100
AcDbDimension
280
     0
  2
*D7
 10
15.0
 20
26.0
 30
0.0
 11
14.0
 21
29.4375
 31
0.0
 70
    32
 71
     5
 42
2.0
 73
     0
 74
     0
 75
     0
  3
QCADDimStyle
100
AcDbAlignedDimension
 13
13.0
 23
25.0
 33
0.0
 14
15.0
 24
24.25
 34
0.0
100
AcDbRotatedDimension
1001
ACAD
1000
DSTYLE
1002
{
1070
   279
1070
     2
1070
    41
1040
2.5
1070
    79
1070
     2
1070
   176
1070
     0
1070
   177
1070
     0
1070
   178
1070
     0
1070
    44
1040
1.25
1070
    42
1040
0.625
1070
   147
1040
0.625
1070
   140
1040
2.5
1070
    78
1070
     8
1002
}
  0
DIMENSION
  5
98
330
1C1
100
AcDbEntity
  8
Bemaßung
100
AcDbDimension
280
     0
  2
*D8
 10
48.0
 20
28.0
 30
0.0
 11
46.0
 21
29.875
 31
0.0
 70
    32
 71
     5
 42
4.0
 73
     0
 74
     0
 75
     0
  3
QCADDimStyle
100
AcDbAlignedDimension
 13
44.0
 23
25.0
 33
0.0
 14
48.0
 24
25.0
 34
0.0
100
AcDbRotatedDimension
1001
ACAD
1000
DSTYLE
1002
{
1070
   279
1070
     2
1070
    41
1040
2.5
1070
    79
1070
     2
1070
   176
1070
     0
1070
   177
1070
     0
1070
   178
1070
     0
1070
    44
1040
1.25
1070
    42
1040
0.625
1070
   147
1040
0.625
1070
   140
1040
2.5
1070
    78
1070
     8
1002
}
  0
DIMENSION
  5
99
330
1C1
100
AcDbEntity
  8
Bemaßung
100
AcDbDimension
280
     0
  2
*D9
 10
46.0
 20
-27.0
 30
0.0
 11
28.5
 21
-25.125
 31
0.0
 70
    32
 71
     5
 42
35.0
 73
     0
 74
     0
 75
     0
  3
QCADDimStyle
100
AcDbAlignedDimension
 13
11.0
 23
-25.0
 33
0.0
 14
46.0
 24
-25.0
 34
0.0
100
AcDbRotatedDimension
1001
ACAD
1000
DSTYLE
1002
{
1070
   279
1070
     2
1070
    41
1040
2.5
1070
    79
1070
     2
1070
   176
1070
     0
1070
   177
1070
     0
1070
   178
1070
     0
1070
    44
1040
1.25
1070
    42
1040
0.625
1070
   147
1040
0.625
1070
   140
1040
2.5
1070
    78
1070
     8
1002
}
  0
DIMENSION
  5
9A
330
1C1
100
AcDbEntity
  8
Bemaßung
100
AcDbDimension
280
     0
  2
*D10
 10
168.5538639506173
 20
-10.45
 30
0.0
 11
171.9913639506173
 21
-12.55
 31
0.0
 70
    32
 71
     5
 42
4.200000000000001
 73
     0
 74
     0
 75
     0
  3
QCADDimStyle
100
AcDbAlignedDimension
 13
162.0
 23
-14.65
 33
0.0
 14
162.0
 24
-10.45
 34
0.0
 50
90.0
100
AcDbRotatedDimension
1001
ACAD
1000
DSTYLE
1002
{
1070
   279
1070
     2
1070
    41
1040
2.5
1070
    79
1070
     2
1070
   176
1070
     0
1070
   177
1070
     0
1070
   178
1070
     0
1070
    44
1040
1.25
1070
    42
1040
0.625
1070
   147
1040
0.625
1070
   140
1040
2.5
1070
    78
1070
     8
1002
}
  0
LINE
  5
9B
330
1C1
100
AcDbEntity
  8
Kanten2
100
AcDbLine
 10
-10.0
 20
40.0
 30
0.0
 11
170.0
 21
40.0
 31
0.0
  0
LINE
  5
9C
330
1C1
100
AcDbEntity
  8
Kanten2
100
AcDbLine
 10
170.0
 20
40.0
 30
0.0
 11
170.0
 21
-40.0
 31
0.0
  0
LINE
  5
9D
330
1C1
100
AcDbEntity
  8
Kanten2
100
AcDbLine
 10
170.0
 20
-40.0
 30
0.0
 11
-10.0
 21
-40.0
 31
0.0
  0
LINE
  5
9E
330
1C1
100
AcDbEntity
  8
Kanten2
100
AcDbLine
 10
-10.0
 20
-40.0
 30
0.0
 11
-10.0
 21
40.0
 31
0.0
  0
HATCH
  5
A1
330
1C1
100
AcDbEntity
  8
Schraffur1
100
AcDbHatch
 10
0.0
 20
0.0
 30
0.0
210
0.0
220
0.0
230
1.0
  2
SOLID
 70
     1
 71
     0
 91
        1
 92
        0
 93
        4
 72
     1
 10
9.0
 20
20.0
 11
13.0
 21
20.0
 72
     1
 10
13.0
 20
20.0
 11
13.0
 21
25.0
 72
     1
 10
13.0
 20
25.0
 11
9.0
 21
25.0
 72
     1
 10
9.0
 20
25.0
 11
9.0
 21
20.0
 97
        0
 75
     0
 76
     1
 98
        0
  0
HATCH
  5
A2
330
1C1
100
AcDbEntity
  8
Schraffur1
100
AcDbHatch
 10
0.0
 20
0.0
 30
0.0
210
0.0
220
0.0
230
1.0
  2
SOLID
 70
     1
 71
     0
 91
        1
 92
        0
 93
        4
 72
     1
 10
9.0
 20
-25.0
 11
13.0
 21
-25.0
 72
     1
 10
13.0
 20
-25.0
 11
13.0
 21
-20.0
 72
     1
 10
13.0
 20
-20.0
 11
9.0
 21
-20.0
 72
     1
 10
9.0
 20
-20.0
 11
9.0
 21
-25.0
 97
        0
 75
     0
 76
     1
 98
        0
  0
HATCH
  5
B4
330
1C1
100
AcDbEntity
  8
Schraffur1
100
AcDbHatch
 10
0.0
 20
0.0
 30
0.0
210
0.0
220
0.0
230
1.0
  2
SOLID
 70
     1
 71
     0
 91
        1
 92
        0
 93
        4
 72
     1
 10
0.0
 20
14.65
 11
162.0
 21
14.65
 72
     1
 10
162.0
 20
14.65
 11
162.0
 21
10.45
 72
     1
 10
162.0
 20
10.45
 11
0.0
 21
10.45
 72
     1
 10
0.0
 20
10.45
 11
0.0
 21
14.65
 97
        0
 75
     0
 76
     1
 98
        0
  0
HATCH
  5
B5
330
1C1
100
AcDbEntity
  8
Schraffur1
100
AcDbHatch
 10
0.0
 20
0.0
 30
0.0
210
0.0
220
0.0
230
1.0
  2
SOLID
 70
     1
 71
     0
 91
        1
 92
        0
 93
        4
 72
     1
 10
0.0
 20
-10.45
 11
162.0
 21
-10.45
 72
     1
 10
162.0
 20
-10.45
 11
162.0
 21
-14.65
 72
     1
 10
162.0
 20
-14.65
 11
0.0
 21
-14.65
 72
     1
 10
0.0
 20
-14.65
 11
0.0
 21
-10.45
 97
        0
 75
     0
 76
     1
 98
        0
  0
HATCH
  5
B6
330
1C1
100
AcDbEntity
  8
Schraffur1
100
AcDbHatch
 10
0.0
 20
0.0
 30
0.0
210
0.0
220
0.0
230
1.0
  2
SOLID
 70
     1
 71
     0
 91
        1
 92
        0
 93
        4
 72
     1
 10
44.0
 20
20.0
 11
48.0
 21
20.0
 72
     1
 10
48.0
 20
20.0
 11
48.0
 21
25.0
 72
     1
 10
48.0
 20
25.0
 11
44.0
 21
25.0
 72
     1
 10
44.0
 20
25.0
 11
44.0
 21
20.0
 97
        0
 75
     0
 76
     1
 98
        0
  0
HATCH
  5
B7
330
1C1
100
AcDbEntity
  8
Schraffur1
100
AcDbHatch
 10
0.0
 20
0.0
 30
0.0
210
0.0
220
0.0
230
1.0
  2
SOLID
 70
     1
 71
     0
 91
        1
 92
        0
 93
        4
 72
     1
 10
79.0
 20
20.0
 11
83.0
 21
20.0
 72
     1
 10
83.0
 20
20.0
 11
83.0
 21
25.0
 72
     1
 10
83.0
 20
25.0
 11
79.0
 21
25.0
 72
     1
 10
79.0
 20
25.0
 11
79.0
 21
20.0
 97
        0
 75
     0
 76
     1
 98
        0
  0
HATCH
  5
B8
330
1C1
100
AcDbEntity
  8
Schraffur1
100
AcDbHatch
 10
0.0
 20
0.0
 30
0.0
210
0.0
220
0.0
230
1.0
  2
SOLID
 70
     1
 71
     0
 91
        1
 92
        0
 93
        4
 72
     1
 10
114.0
 20
20.0
 11
118.0
 21
20.0
 72
     1
 10
118.0
 20
20.0
 11
118.0
 21
25.0
 72
     1
 10
118.0
 20
25.0
 11
114.0
 21
25.0
 72
     1
 10
114.0
 20
25.0
 11
114.0
 21
20.0
 97
        0
 75
     0
 76
     1
 98
        0
  0
HATCH
  5
B9
330
1C1
100
AcDbEntity
  8
Schraffur1
100
AcDbHatch
 10
0.0
 20
0.0
 30
0.0
210
0.0
220
0.0
230
1.0
  2
SOLID
 70
     1
 71
     0
 91
        1
 92
        0
 93
        4
 72
     1
 10
149.0
 20
20.0
 11
153.0
 21
20.0
 72
     1
 10
153.0
 20
20.0
 11
153.0
 21
25.0
 72
     1
 10
153.0
 20
25.0
 11
149.0
 21
25.0
 72
     1
 10
149.0
 20
25.0
 11
149.0
 21
20.0
 97
        0
 75
     0
 76
     1
 98
        0
  0
HATCH
  5
BA
330
1C1
100
AcDbEntity
  8
Schraffur1
100
AcDbHatch
 10
0.0
 20
0.0
 30
0.0
210
0.0
220
0.0
230
1.0
  2
SOLID
 70
     1
 71
     0
 91
        1
 92
        0
 93
        4
 72
     1
 10
44.0
 20
-25.0
 11
48.0
 21
-25.0
 72
     1
 10
48.0
 20
-25.0
 11
48.0
 21
-20.0
 72
     1
 10
48.0
 20
-20.0
 11
44.0
 21
-20.0
 72
     1
 10
44.0
 20
-20.0
 11
44.0
 21
-25.0
 97
        0
 75
     0
 76
     1
 98
        0
  0
HATCH
  5
BB
330
1C1
100
AcDbEntity
  8
Schraffur1
100
AcDbHatch
 10
0.0
 20
0.0
 30
0.0
210
0.0
220
0.0
230
1.0
  2
SOLID
 70
     1
 71
     0
 91
        1
 92
        0
 93
        4
 72
     1
 10
79.0
 20
-25.0
 11
83.0
 21
-25.0
 72
     1
 10
83.0
 20
-25.0
 11
83.0
 21
-20.0
 72
     1
 10
83.0
 20
-20.0
 11
79.0
 21
-20.0
 72
     1
 10
79.0
 20
-20.0
 11
79.0
 21
-25.0
 97
        0
 75
     0
 76
     1
 98
        0
  0
HATCH
  5
BC
330
1C1
100
AcDbEntity
  8
Schraffur1
100
AcDbHatch
 10
0.0
 20
0.0
 30
0.0
210
0.0
220
0.0
230
1.0
  2
SOLID
 70
     1
 71
     0
 91
        1
 92
        0
 93
        4
 72
     1
 10
118.0
 20
-25.0
 11
118.0
 21
-20.0
 72
     1
 10
118.0
 20
-20.0
 11
114.0
 21
-20.0
 72
     1
 10
114.0
 20
-20.0
 11
114.0
 21
-25.0
 72
     1
 10
114.0
 20
-25.0
 11
118.0
 21
-25.0
 97
        0
 75
     0
 76
     1
 98
        0
  0
HATCH
  5
BD
330
1C1
100
AcDbEntity
  8
Schraffur1
100
AcDbHatch
 10
0.0
 20
0.0
 30
0.0
210
0.0
220
0.0
230
1.0
  2
SOLID
 70
     1
 71
     0
 91
        1
 92
        0
 93
        4
 72
     1
 10
149.0
 20
-25.0
 11
153.0
 21
-25.0
 72
     1
 10
153.0
 20
-25.0
 11
153.0
 21
-20.0
 72
     1
 10
153.0
 20
-20.0
 11
149.0
 21
-20.0
 72
     1
 10
149.0
 20
-20.0
 11
149.0
 21
-25.0
 97
        0
 75
     0
 76
     1
 98
        0
  0
HATCH
  5
BF
330
1C1
100
AcDbEntity
  8
Schraffur 2
100
AcDbHatch
 10
0.0
 20
0.0
 30
0.0
210
0.0
220
0.0
230
1.0
  2
SOLID
 70
     1
 71
     0
 91
        1
 92
        0
 93
        4
 72
     1
 10
42.0
 20
20.0
 11
50.0
 21
20.0
 72
     1
 10
50.0
 20
20.0
 11
50.0
 21
-20.0
 72
     1
 10
50.0
 20
-20.0
 11
42.0
 21
-20.0
 72
     1
 10
42.0
 20
-20.0
 11
42.0
 21
20.0
 97
        0
 75
     0
 76
     1
 98
        0
  0
HATCH
  5
C0
330
1C1
100
AcDbEntity
  8
Schraffur 2
100
AcDbHatch
 10
0.0
 20
0.0
 30
0.0
210
0.0
220
0.0
230
1.0
  2
SOLID
 70
     1
 71
     0
 91
        1
 92
        0
 93
        4
 72
     1
 10
15.0
 20
20.0
 11
15.0
 21
-20.0
 72
     1
 10
15.0
 20
-20.0
 11
7.000000000000004
 21
-20.0
 72
     1
 10
7.000000000000004
 20
-20.0
 11
7.000000000000003
 21
20.0
 72
     1
 10
7.000000000000003
 20
20.0
 11
15.0
 21
20.0
 97
        0
 75
     0
 76
     1
 98
        0
  0
HATCH
  5
C1
330
1C1
100
AcDbEntity
  8
Schraffur 2
100
AcDbHatch
 10
0.0
 20
0.0
 30
0.0
210
0.0
220
0.0
230
1.0
  2
SOLID
 70
     1
 71
     0
 91
        1
 92
        0
 93
        4
 72
     1
 10
77.0
 20
20.0
 11
85.0
 21
20.0
 72
     1
 10
85.0
 20
20.0
 11
85.0
 21
-20.0
 72
     1
 10
85.0
 20
-20.0
 11
77.0
 21
-20.0
 72
     1
 10
77.0
 20
-20.0
 11
77.0
 21
20.0
 97
        0
 75
     0
 76
     1
 98
        0
  0
HATCH
  5
C2
330
1C1
100
AcDbEntity
  8
Schraffur 2
100
AcDbHatch
 10
0.0
 20
0.0
 30
0.0
210
0.0
220
0.0
230
1.0
  2
SOLID
 70
     1
 71
     0
 91
        1
 92
        0
 93
        4
 72
     1
 10
112.0
 20
20.0
 11
120.0
 21
20.0
 72
     1
 10
120.0
 20
20.0
 11
120.0
 21
-20.0
 72
     1
 10
120.0
 20
-20.0
 11
112.0
 21
-20.0
 72
     1
 10
112.0
 20
-20.0
 11
112.0
 21
20.0
 97
        0
 75
     0
 76
     1
 98
        0
  0
HATCH
  5
C3
330
1C1
100
AcDbEntity
  8
Schraffur 2
100
AcDbHatch
 10
0.0
 20
0.0
 30
0.0
210
0.0
220
0.0
230
1.0
  2
SOLID
 70
     1
 71
     0
 91
        1
 92
        0
 93
        4
 72
     1
 10
147.0
 20
-20.0
 11
147.0
 21
20.0
 72
     1
 10
147.0
 20
20.0
 11
155.0
 21
20.0
 72
     1
 10
155.0
 20
20.0
 11
155.0
 21
-20.0
 72
     1
 10
155.0
 20
-20.0
 11
147.0
 21
-20.0
 97
        0
 75
     0
 76
     1
 98
        0
  0
ENDSEC
  0
SECTION
  2
OBJECTS
  0
DICTIONARY
  5
1AF
330
0
100
AcDbDictionary
281
     1
  3
ACAD_DETAILVIEWSTYLE
350
308
  3
ACAD_GROUP
350
1B0
  3
ACAD_LAYOUT
350
1BC
  3
ACAD_MATERIAL
350
1E5
  3
ACAD_MLEADERSTYLE
350
20D
  3
ACAD_MLINESTYLE
350
1B9
  3
ACAD_PLOTSETTINGS
350
1BB
  3
ACAD_PLOTSTYLENAME
350
1B1
  3
ACAD_SCALELIST
350
1E9
  3
ACAD_SECTIONVIEWSTYLE
350
309
  3
ACAD_TABLESTYLE
350
20B
  3
ACAD_VISUALSTYLE
350
1CC
  3
ACDB_RECOMPOSE_DATA
350
305
  3
AcDbVariableDictionary
350
301
  3
QCAD_OBJECTS
350
211
  0
SUN
  5
20F
330
1CB
100
AcDbSun
 90
        1
290
     0
 63
     7
421
 16777215
 40
1.0
291
     1
 91
  2455826
 92
 54000000
292
     0
 70
     2
 71
   256
280
     1
  0
DICTIONARY
  5
308
102
{ACAD_REACTORS
330
1AF
102
}
330
1AF
100
AcDbDictionary
281
     1
  0
DICTIONARY
  5
1B0
102
{ACAD_REACTORS
330
1AF
102
}
330
1AF
100
AcDbDictionary
281
     1
  0
DICTIONARY
  5
1BC
102
{ACAD_REACTORS
330
1AF
102
}
330
1AF
100
AcDbDictionary
281
     1
  3
Layout1
350
1C0
  3
Layout2
350
1C8
  3
Model
350
1C4
  0
DICTIONARY
  5
1E5
102
{ACAD_REACTORS
330
1AF
102
}
330
1AF
100
AcDbDictionary
281
     1
  3
ByBlock
350
1E7
  3
ByLayer
350
1E6
  3
Global
350
1E8
  0
DICTIONARY
  5
20D
102
{ACAD_REACTORS
330
1AF
102
}
330
1AF
100
AcDbDictionary
281
     1
  3
Standard
350
20E
  0
DICTIONARY
  5
1B9
102
{ACAD_REACTORS
330
1AF
102
}
330
1AF
100
AcDbDictionary
281
     1
  3
Standard
350
1BA
  0
DICTIONARY
  5
1BB
102
{ACAD_REACTORS
330
1AF
102
}
330
1AF
100
AcDbDictionary
281
     1
  0
ACDBDICTIONARYWDFLT
  5
1B1
102
{ACAD_REACTORS
330
1AF
102
}
330
1AF
100
AcDbDictionary
281
     1
  3
Normal
350
1B2
100
AcDbDictionaryWithDefault
340
1B2
  0
DICTIONARY
  5
1E9
102
{ACAD_REACTORS
330
1AF
102
}
330
1AF
100
AcDbDictionary
281
     1
  3
A0
350
1EA
  3
A1
350
1EB
  3
A2
350
1EC
  3
A3
350
1ED
  3
A4
350
1EE
  3
A5
350
1EF
  3
A6
350
1F0
  3
A7
350
1F1
  3
A8
350
1F2
  3
A9
350
1F3
  3
B0
350
1F4
  3
B1
350
1F5
  3
B2
350
1F6
  3
B3
350
1F7
  3
B4
350
1F8
  3
B5
350
1F9
  3
B6
350
1FA
  3
B7
350
1FB
  3
B8
350
1FC
  3
B9
350
1FD
  3
C0
350
1FE
  3
C1
350
1FF
  3
C2
350
200
  3
C3
350
201
  3
C4
350
202
  3
C5
350
203
  3
C6
350
204
  3
C7
350
205
  3
C8
350
206
  3
C9
350
207
  3
D0
350
208
  3
D1
350
209
  3
D2
350
20A
  0
DICTIONARY
  5
309
102
{ACAD_REACTORS
330
1AF
102
}
330
1AF
100
AcDbDictionary
281
     1
  0
DICTIONARY
  5
20B
102
{ACAD_REACTORS
330
1AF
102
}
330
1AF
100
AcDbDictionary
281
     1
  3
Standard
350
20C
  0
DICTIONARY
  5
1CC
102
{ACAD_REACTORS
330
1AF
102
}
330
1AF
100
AcDbDictionary
281
     1
  3
2dWireframe
350
1D1
  3
Basic
350
1D4
  3
Brighten
350
1D8
  3
ColorChange
350
1DC
  3
Conceptual
350
1D6
  3
Dim
350
1D7
  3
EdgeColorOff
350
1DF
  3
Facepattern
350
1DB
  3
Flat
350
1CD
  3
FlatWithEdges
350
1CE
  3
Gouraud
350
1CF
  3
GouraudWithEdges
350
1D0
  3
Hidden
350
1D3
  3
JitterOff
350
1DD
  3
Linepattern
350
1DA
  3
OverhangOff
350
1DE
  3
Realistic
350
1D5
  3
Shaded
350
1E4
  3
Shaded with edges
350
1E3
  3
Shades of Gray
350
1E0
  3
Sketchy
350
1E1
  3
Thicken
350
1D9
  3
Wireframe
350
1D2
  3
X-Ray
350
1E2
  0
XRECORD
  5
305
102
{ACAD_REACTORS
330
1AF
102
}
330
1AF
100
AcDbXrecord
280
     1
 90
        1
330
20C
  0
DICTIONARY
  5
301
102
{ACAD_REACTORS
330
1AF
102
}
330
1AF
100
AcDbDictionary
281
     1
  3
CANNOSCALE
350
302
  3
CMLEADERSTYLE
350
307
  3
CTABLESTYLE
350
306
  0
DICTIONARY
  5
211
102
{ACAD_REACTORS
330
1AF
102
}
330
1AF
100
AcDbDictionary
281
     1
  3
ColorSettings/BackgroundColor
350
213
  3
ColorSettings/ColorMode
350
214
  3
Grid/DisplayGrid00
350
215
  3
Grid/DisplayGrid01
350
216
  3
Grid/DisplayGrid02
350
217
  3
Grid/DisplayGrid03
350
218
  3
Grid/GridSpacingX00
350
219
  3
Grid/GridSpacingX01
350
21A
  3
Grid/GridSpacingX02
350
21B
  3
Grid/GridSpacingX03
350
21C
  3
Grid/GridSpacingY00
350
21D
  3
Grid/GridSpacingY01
350
21E
  3
Grid/GridSpacingY02
350
21F
  3
Grid/GridSpacingY03
350
220
  3
Grid/IsometricGrid00
350
221
  3
Grid/IsometricGrid01
350
222
  3
Grid/IsometricGrid02
350
223
  3
Grid/IsometricGrid03
350
224
  3
Grid/IsometricProjection00
350
225
  3
Grid/IsometricProjection01
350
226
  3
Grid/IsometricProjection02
350
227
  3
Grid/IsometricProjection03
350
228
  3
Grid/MetaGridSpacingX00
350
229
  3
Grid/MetaGridSpacingX01
350
22A
  3
Grid/MetaGridSpacingX02
350
22B
  3
Grid/MetaGridSpacingX03
350
22C
  3
Grid/MetaGridSpacingY00
350
22D
  3
Grid/MetaGridSpacingY01
350
22E
  3
Grid/MetaGridSpacingY02
350
22F
  3
Grid/MetaGridSpacingY03
350
230
  3
MultiPageSettings/Columns
350
231
  3
MultiPageSettings/GlueMarginsBottom
350
232
  3
MultiPageSettings/GlueMarginsLeft
350
233
  3
MultiPageSettings/GlueMarginsRight
350
234
  3
MultiPageSettings/GlueMarginsTop
350
235
  3
MultiPageSettings/PrintCropMarks
350
236
  3
MultiPageSettings/Rows
350
237
  3
PageSettings/OffsetX
350
238
  3
PageSettings/OffsetY
350
239
  3
PageSettings/PageOrientation
350
23A
  3
PageSettings/PaperHeight
350
23B
  3
PageSettings/PaperWidth
350
23C
  3
PageSettings/Scale
350
23D
  3
PageSettings/ShowPaperBorders
350
23E
  3
QCADVersion
350
23F
  3
UnitSettings/PaperUnit
350
240
  0
LAYOUT
  5
1C0
102
{ACAD_REACTORS
330
1BC
102
}
330
1BC
100
AcDbPlotSettings
  1

  2
none_device
  4

  6

 40
0.0
 41
0.0
 42
0.0
 43
0.0
 44
0.0
 45
0.0
 46
0.0
 47
0.0
 48
0.0
 49
0.0
140
0.0
141
0.0
142
1.0
143
1.0
 70
   688
 72
     0
 73
     0
 74
     5
  7

 75
    16
 76
     0
 77
     2
 78
   300
147
1.0
148
0.0
149
0.0
100
AcDbLayout
  1
Layout1
 70
     1
 71
     1
 10
0.0
 20
0.0
 11
12.0
 21
9.0
 12
0.0
 22
0.0
 32
0.0
 14
1.000000000000000E+20
 24
1.000000000000000E+20
 34
1.000000000000000E+20
 15
-1.000000000000000E+20
 25
-1.000000000000000E+20
 35
-1.000000000000000E+20
146
0.0
 13
0.0
 23
0.0
 33
0.0
 16
1.0
 26
0.0
 36
0.0
 17
0.0
 27
1.0
 37
0.0
 76
     0
330
1BD
  0
LAYOUT
  5
1C8
102
{ACAD_REACTORS
330
1BC
102
}
330
1BC
100
AcDbPlotSettings
  1

  2
none_device
  4

  6

 40
0.0
 41
0.0
 42
0.0
 43
0.0
 44
0.0
 45
0.0
 46
0.0
 47
0.0
 48
0.0
 49
0.0
140
0.0
141
0.0
142
1.0
143
1.0
 70
   688
 72
     0
 73
     0
 74
     5
  7

 75
    16
 76
     0
 77
     2
 78
   300
147
1.0
148
0.0
149
0.0
100
AcDbLayout
  1
Layout2
 70
     1
 71
     2
 10
0.0
 20
0.0
 11
0.0
 21
0.0
 12
0.0
 22
0.0
 32
0.0
 14
0.0
 24
0.0
 34
0.0
 15
0.0
 25
0.0
 35
0.0
146
0.0
 13
0.0
 23
0.0
 33
0.0
 16
1.0
 26
0.0
 36
0.0
 17
0.0
 27
1.0
 37
0.0
 76
     0
330
1C5
  0
LAYOUT
  5
1C4
102
{ACAD_REACTORS
330
1BC
102
}
330
1BC
100
AcDbPlotSettings
  1

  2
none_device
  4
Letter_(8.50_x_11.00_Inches)
  6

 40
6.35
 41
6.35
 42
6.35000508
 43
6.35000508
 44
215.9
 45
279.4
 46
0.0
 47
0.0
 48
0.0
 49
0.0
140
0.0
141
0.0
142
1.0
143
1.0
 70
  1712
 72
     0
 73
     0
 74
     0
  7

 75
     0
 76
     0
 77
     2
 78
   300
147
1.0
148
0.0
149
0.0
100
AcDbLayout
  1
Model
 70
     1
 71
     0
 10
0.0
 20
0.0
 11
12.0
 21
9.0
 12
0.0
 22
0.0
 32
0.0
 14
1.000000000000000E+20
 24
1.000000000000000E+20
 34
1.000000000000000E+20
 15
-1.000000000000000E+20
 25
-1.000000000000000E+20
 35
-1.000000000000000E+20
146
0.0
 13
0.0
 23
0.0
 33
0.0
 16
1.0
 26
0.0
 36
0.0
 17
0.0
 27
1.0
 37
0.0
 76
     0
330
1C1
331
1CB
  0
MATERIAL
  5
1E7
102
{ACAD_REACTORS
330
1E5
102
}
330
1E5
100
AcDbMaterial
  1
ByBlock
 72
     1
 94
      127
  0
MATERIAL
  5
1E6
102
{ACAD_REACTORS
330
1E5
102
}
330
1E5
100
AcDbMaterial
  1
ByLayer
 72
     1
 94
      127
  0
MATERIAL
  5
1E8
102
{ACAD_REACTORS
330
1E5
102
}
330
1E5
100
AcDbMaterial
  1
Global
 72
     1
 94
      127
  0
MLEADERSTYLE
  5
20E
102
{ACAD_REACTORS
330
20D
102
}
330
20D
100
AcDbMLeaderStyle
179
     2
170
     2
171
     1
172
     0
 90
        2
 40
0.0
 41
0.0
173
     1
 91
-1056964608
340
1B6
 92
       -2
290
     1
 42
0.09
291
     1
 43
0.36
  3
Standard
341
0
 44
0.18
300

342
1B4
174
     1
178
     6
175
     1
176
     0
 93
-1056964608
 45
0.18
292
     0
297
     0
 46
0.18
343
0
 94
-1056964608
 47
1.0
 49
1.0
140
1.0
293
     1
141
0.0
294
     1
177
     0
142
1.0
295
     0
296
     0
143
0.125
271
     0
272
     9
273
     9
298
     0
  0
MLINESTYLE
  5
1BA
102
{ACAD_REACTORS
330
1B9
102
}
330
1B9
100
AcDbMlineStyle
  2
Standard
 70
     0
  3

 62
   256
 51
90.0
 52
90.0
 71
     2
 49
0.5
 62
   256
  6
BYLAYER
 49
-0.5
 62
   256
  6
BYLAYER
  0
ACDBPLACEHOLDER
  5
1B2
102
{ACAD_REACTORS
330
1B1
102
}
330
1B1
  0
SCALE
  5
1EA
102
{ACAD_REACTORS
330
1E9
102
}
330
1E9
100
AcDbScale
 70
     0
300
1:1
140
1.0
141
1.0
290
     1
  0
SCALE
  5
1EB
102
{ACAD_REACTORS
330
1E9
102
}
330
1E9
100
AcDbScale
 70
     0
300
1:2
140
1.0
141
2.0
290
     0
  0
SCALE
  5
1EC
102
{ACAD_REACTORS
330
1E9
102
}
330
1E9
100
AcDbScale
 70
     0
300
1:4
140
1.0
141
4.0
290
     0
  0
SCALE
  5
1ED
102
{ACAD_REACTORS
330
1E9
102
}
330
1E9
100
AcDbScale
 70
     0
300
1:5
140
1.0
141
5.0
290
     0
  0
SCALE
  5
1EE
102
{ACAD_REACTORS
330
1E9
102
}
330
1E9
100
AcDbScale
 70
     0
300
1:8
140
1.0
141
8.0
290
     0
  0
SCALE
  5
1EF
102
{ACAD_REACTORS
330
1E9
102
}
330
1E9
100
AcDbScale
 70
     0
300
1:10
140
1.0
141
10.0
290
     0
  0
SCALE
  5
1F0
102
{ACAD_REACTORS
330
1E9
102
}
330
1E9
100
AcDbScale
 70
     0
300
1:16
140
1.0
141
16.0
290
     0
  0
SCALE
  5
1F1
102
{ACAD_REACTORS
330
1E9
102
}
330
1E9
100
AcDbScale
 70
     0
300
1:20
140
1.0
141
20.0
290
     0
  0
SCALE
  5
1F2
102
{ACAD_REACTORS
330
1E9
102
}
330
1E9
100
AcDbScale
 70
     0
300
1:30
140
1.0
141
30.0
290
     0
  0
SCALE
  5
1F3
102
{ACAD_REACTORS
330
1E9
102
}
330
1E9
100
AcDbScale
 70
     0
300
1:40
140
1.0
141
40.0
290
     0
  0
SCALE
  5
1F4
102
{ACAD_REACTORS
330
1E9
102
}
330
1E9
100
AcDbScale
 70
     0
300
1:50
140
1.0
141
50.0
290
     0
  0
SCALE
  5
1F5
102
{ACAD_REACTORS
330
1E9
102
}
330
1E9
100
AcDbScale
 70
     0
300
1:100
140
1.0
141
100.0
290
     0
  0
SCALE
  5
1F6
102
{ACAD_REACTORS
330
1E9
102
}
330
1E9
100
AcDbScale
 70
     0
300
2:1
140
2.0
141
1.0
290
     0
  0
SCALE
  5
1F7
102
{ACAD_REACTORS
330
1E9
102
}
330
1E9
100
AcDbScale
 70
     0
300
4:1
140
4.0
141
1.0
290
     0
  0
SCALE
  5
1F8
102
{ACAD_REACTORS
330
1E9
102
}
330
1E9
100
AcDbScale
 70
     0
300
8:1
140
8.0
141
1.0
290
     0
  0
SCALE
  5
1F9
102
{ACAD_REACTORS
330
1E9
102
}
330
1E9
100
AcDbScale
 70
     0
300
10:1
140
10.0
141
1.0
290
     0
  0
SCALE
  5
1FA
102
{ACAD_REACTORS
330
1E9
102
}
330
1E9
100
AcDbScale
 70
     0
300
100:1
140
100.0
141
1.0
290
     0
  0
SCALE
  5
1FB
102
{ACAD_REACTORS
330
1E9
102
}
330
1E9
100
AcDbScale
 70
     0
300
1/128" = 1'-0"
140
0.0078125
141
12.0
290
     0
  0
SCALE
  5
1FC
102
{ACAD_REACTORS
330
1E9
102
}
330
1E9
100
AcDbScale
 70
     0
300
1/64" = 1'-0"
140
0.015625
141
12.0
290
     0
  0
SCALE
  5
1FD
102
{ACAD_REACTORS
330
1E9
102
}
330
1E9
100
AcDbScale
 70
     0
300
1/32" = 1'-0"
140
0.03125
141
12.0
290
     0
  0
SCALE
  5
1FE
102
{ACAD_REACTORS
330
1E9
102
}
330
1E9
100
AcDbScale
 70
     0
300
1/16" = 1'-0"
140
0.0625
141
12.0
290
     0
  0
SCALE
  5
1FF
102
{ACAD_REACTORS
330
1E9
102
}
330
1E9
100
AcDbScale
 70
     0
300
3/32" = 1'-0"
140
0.09375
141
12.0
290
     0
  0
SCALE
  5
200
102
{ACAD_REACTORS
330
1E9
102
}
330
1E9
100
AcDbScale
 70
     0
300
1/8" = 1'-0"
140
0.125
141
12.0
290
     0
  0
SCALE
  5
201
102
{ACAD_REACTORS
330
1E9
102
}
330
1E9
100
AcDbScale
 70
     0
300
3/16" = 1'-0"
140
0.1875
141
12.0
290
     0
  0
SCALE
  5
202
102
{ACAD_REACTORS
330
1E9
102
}
330
1E9
100
AcDbScale
 70
     0
300
1/4" = 1'-0"
140
0.25
141
12.0
290
     0
  0
SCALE
  5
203
102
{ACAD_REACTORS
330
1E9
102
}
330
1E9
100
AcDbScale
 70
     0
300
3/8" = 1'-0"
140
0.375
141
12.0
290
     0
  0
SCALE
  5
204
102
{ACAD_REACTORS
330
1E9
102
}
330
1E9
100
AcDbScale
 70
     0
300
1/2" = 1'-0"
140
0.5
141
12.0
290
     0
  0
SCALE
  5
205
102
{ACAD_REACTORS
330
1E9
102
}
330
1E9
100
AcDbScale
 70
     0
300
3/4" = 1'-0"
140
0.75
141
12.0
290
     0
  0
SCALE
  5
206
102
{ACAD_REACTORS
330
1E9
102
}
330
1E9
100
AcDbScale
 70
     0
300
1" = 1'-0"
140
1.0
141
12.0
290
     0
  0
SCALE
  5
207
102
{ACAD_REACTORS
330
1E9
102
}
330
1E9
100
AcDbScale
 70
     0
300
1-1/2" = 1'-0"
140
1.5
141
12.0
290
     0
  0
SCALE
  5
208
102
{ACAD_REACTORS
330
1E9
102
}
330
1E9
100
AcDbScale
 70
     0
300
3" = 1'-0"
140
3.0
141
12.0
290
     0
  0
SCALE
  5
209
102
{ACAD_REACTORS
330
1E9
102
}
330
1E9
100
AcDbScale
 70
     0
300
6" = 1'-0"
140
6.0
141
12.0
290
     0
  0
SCALE
  5
20A
102
{ACAD_REACTORS
330
1E9
102
}
330
1E9
100
AcDbScale
 70
     0
300
1'-0" = 1'-0"
140
12.0
141
12.0
290
     0
  0
TABLESTYLE
  5
20C
102
{ACAD_REACTORS
330
20B
102
}
102
{ACAD_XDICTIONARY
360
303
102
}
330
20B
100
AcDbTableStyle
  3
Standard
 70
     0
 71
     0
 40
0.06
 41
0.06
280
     0
281
     0
  7
Standard
140
0.18
170
     2
 62
     0
 63
   257
283
     0
 90
        4
 91
        0
  1

274
    -2
284
     1
 64
     0
275
    -2
285
     1
 65
     0
276
    -2
286
     1
 66
     0
277
    -2
287
     1
 67
     0
278
    -2
288
     1
 68
     0
279
    -2
289
     1
 69
     0
  7
Standard
140
0.25
170
     5
 62
     0
 63
   257
283
     0
 90
        4
 91
        0
  1

274
    -2
284
     1
 64
     0
275
    -2
285
     1
 65
     0
276
    -2
286
     1
 66
     0
277
    -2
287
     1
 67
     0
278
    -2
288
     1
 68
     0
279
    -2
289
     1
 69
     0
  7
Standard
140
0.18
170
     5
 62
     0
 63
   257
283
     0
 90
        4
 91
        0
  1

274
    -2
284
     1
 64
     0
275
    -2
285
     1
 65
     0
276
    -2
286
     1
 66
     0
277
    -2
287
     1
 67
     0
278
    -2
288
     1
 68
     0
279
    -2
289
     1
 69
     0
  0
VISUALSTYLE
  5
1D1
102
{ACAD_REACTORS
330
1CC
102
}
330
1CC
100
AcDbVisualStyle
  2
2dWireframe
 70
     4
177
     3
291
     0
 70
    58
 90
        0
176
     1
 90
        2
176
     1
 90
        0
176
     1
 90
        0
176
     1
 40
0.6
176
     1
 40
30.0
176
     1
 62
     7
420
 16777215
176
     1
 90
        1
176
     1
 90
        4
176
     1
 62
     7
176
     1
 62
   257
176
     1
 90
        1
176
     1
 90
        1
176
     1
 40
1.0
176
     1
 90
        0
176
     1
 62
   257
176
     1
 40
1.0
176
     1
 90
        1
176
     1
 90
        6
176
     1
 90
        2
176
     1
 62
     7
176
     1
 90
        5
176
     1
 90
        0
176
     1
 90
        0
176
     1
290
     0
176
     1
 90
        1
176
     1
 40
0.0
176
     1
 90
        0
176
     1
290
     1
176
     1
290
     1
176
     1
290
     0
176
     1
290
     0
176
     1
290
     0
176
     1
290
     0
176
     1
290
     0
176
     1
290
     0
176
     1
290
     0
176
     1
 90
       50
176
     1
 40
0.0
176
     1
 40
1.0
176
     1
 90
        0
176
     1
 62
    18
420
        0
176
     1
 90
       50
176
     1
 90
        3
176
     1
 62
     5
420
      255
176
     1
290
     0
176
     1
 90
       50
176
     1
 90
       50
176
     1
 90
       50
176
     1
290
     0
176
     1
 90
       50
176
     1
 62
   256
176
     0
 40
1.0
176
     0
 90
        2
176
     1
  1
strokes_ogs.tif
176
     1
290
     0
176
     1
 40
1.0
176
     1
 40
1.0
176
     1
  0
VISUALSTYLE
  5
1D4
102
{ACAD_REACTORS
330
1CC
102
}
330
1CC
100
AcDbVisualStyle
  2
Basic
 70
     7
177
     3
291
     1
 70
    58
 90
        1
176
     1
 90
        0
176
     1
 90
        1
176
     1
 90
        0
176
     1
 40
0.6
176
     1
 40
30.0
176
     1
 62
     7
420
 16777215
176
     1
 90
        0
176
     1
 90
        4
176
     1
 62
     7
176
     1
 62
   257
176
     1
 90
        1
176
     1
 90
        1
176
     1
 40
1.0
176
     1
 90
        8
176
     1
 62
     7
176
     1
 40
1.0
176
     1
 90
        1
176
     1
 90
        6
176
     1
 90
        2
176
     1
 62
     7
176
     1
 90
        5
176
     1
 90
        0
176
     1
 90
        0
176
     1
290
     0
176
     1
 90
        1
176
     1
 40
0.0
176
     1
 90
        0
176
     1
290
     0
176
     1
290
     1
176
     1
290
     1
176
     1
290
     0
176
     1
290
     0
176
     1
290
     0
176
     1
290
     0
176
     1
290
     0
176
     1
290
     0
176
     1
 90
       50
176
     1
 40
0.0
176
     1
 40
1.0
176
     1
 90
        0
176
     1
 62
    18
420
        0
176
     1
 90
       50
176
     1
 90
        3
176
     1
 62
     5
420
      255
176
     1
290
     0
176
     1
 90
       50
176
     1
 90
       50
176
     1
 90
       50
176
     1
290
     0
176
     1
 90
       50
176
     1
 62
   256
176
     0
 40
1.0
176
     0
 90
        2
176
     1
  1
strokes_ogs.tif
176
     1
290
     0
176
     1
 40
1.0
176
     1
 40
1.0
176
     1
  0
VISUALSTYLE
  5
1D8
102
{ACAD_REACTORS
330
1CC
102
}
330
1CC
100
AcDbVisualStyle
  2
Brighten
 70
    12
177
     3
291
     1
 70
    58
 90
        2
176
     1
 90
        2
176
     1
 90
        0
176
     1
 90
        0
176
     1
 40
0.6
176
     1
 40
30.0
176
     1
 62
     7
420
 16777215
176
     1
 90
        1
176
     1
 90
        4
176
     1
 62
     7
176
     1
 62
   257
176
     1
 90
        1
176
     1
 90
        1
176
     1
 40
1.0
176
     1
 90
        8
176
     1
 62
     7
176
     1
 40
1.0
176
     1
 90
        1
176
     1
 90
        6
176
     1
 90
        2
176
     1
 62
     7
176
     1
 90
        5
176
     1
 90
        0
176
     1
 90
        0
176
     1
290
     0
176
     1
 90
        1
176
     1
 40
50.0
176
     1
 90
        0
176
     1
290
     0
176
     1
290
     1
176
     1
290
     1
176
     1
290
     0
176
     1
290
     0
176
     1
290
     0
176
     1
290
     0
176
     1
290
     0
176
     1
290
     0
176
     1
 90
       50
176
     1
 40
0.0
176
     1
 40
1.0
176
     1
 90
        0
176
     1
 62
    18
420
        0
176
     1
 90
       50
176
     1
 90
        3
176
     1
 62
     5
420
      255
176
     1
290
     0
176
     1
 90
       50
176
     1
 90
       50
176
     1
 90
       50
176
     1
290
     0
176
     1
 90
       50
176
     1
 62
   256
176
     0
 40
1.0
176
     0
 90
        2
176
     1
  1
strokes_ogs.tif
176
     1
290
     0
176
     1
 40
1.0
176
     1
 40
1.0
176
     1
  0
VISUALSTYLE
  5
1DC
102
{ACAD_REACTORS
330
1CC
102
}
330
1CC
100
AcDbVisualStyle
  2
ColorChange
 70
    16
177
     3
291
     1
 70
    58
 90
        2
176
     1
 90
        2
176
     1
 90
        3
176
     1
 90
        0
176
     1
 40
0.6
176
     1
 40
30.0
176
     1
 62
     8
420
  8421504
176
     1
 90
        1
176
     1
 90
        4
176
     1
 62
     7
176
     1
 62
   257
176
     1
 90
        1
176
     1
 90
        1
176
     1
 40
1.0
176
     1
 90
        8
176
     1
 62
     8
420
  8421504
176
     1
 40
1.0
176
     1
 90
        1
176
     1
 90
        6
176
     1
 90
        2
176
     1
 62
     7
176
     1
 90
        5
176
     1
 90
        0
176
     1
 90
        0
176
     1
290
     0
176
     1
 90
        1
176
     1
 40
0.0
176
     1
 90
        0
176
     1
290
     0
176
     1
290
     1
176
     1
290
     1
176
     1
290
     0
176
     1
290
     0
176
     1
290
     0
176
     1
290
     0
176
     1
290
     0
176
     1
290
     0
176
     1
 90
       50
176
     1
 40
0.0
176
     1
 40
1.0
176
     1
 90
        0
176
     1
 62
    18
420
        0
176
     1
 90
       50
176
     1
 90
        3
176
     1
 62
     5
420
      255
176
     1
290
     0
176
     1
 90
       50
176
     1
 90
       50
176
     1
 90
       50
176
     1
290
     0
176
     1
 90
       50
176
     1
 62
   256
176
     0
 40
1.0
176
     0
 90
        2
176
     1
  1
strokes_ogs.tif
176
     1
290
     0
176
     1
 40
1.0
176
     1
 40
1.0
176
     1
  0
VISUALSTYLE
  5
1D6
102
{ACAD_REACTORS
330
1CC
102
}
330
1CC
100
AcDbVisualStyle
  2
Conceptual
 70
     9
177
     3
291
     0
 70
    58
 90
        3
176
     1
 90
        2
176
     1
 90
        0
176
     1
 90
        0
176
     1
 40
0.6
176
     1
 40
30.0
176
     1
 62
     7
420
 16777215
176
     1
 90
        2
176
     1
 90
        2
176
     1
 62
     7
176
     1
 62
   257
176
     1
 90
        1
176
     1
 90
        1
176
     1
 40
179.0
176
     1
 90
        8
176
     1
 62
     7
176
     1
 40
1.0
176
     1
 90
        1
176
     1
 90
        6
176
     1
 90
        2
176
     1
 62
     7
176
     1
 90
        3
176
     1
 90
        0
176
     1
 90
        0
176
     1
290
     0
176
     1
 90
        1
176
     1
 40
0.0
176
     1
 90
        0
176
     1
290
     0
176
     1
290
     1
176
     1
290
     1
176
     1
290
     0
176
     1
290
     0
176
     1
290
     0
176
     1
290
     0
176
     1
290
     0
176
     1
290
     0
176
     1
 90
       50
176
     1
 40
0.0
176
     1
 40
1.0
176
     1
 90
        0
176
     1
 62
    18
420
        0
176
     1
 90
       50
176
     1
 90
        3
176
     1
 62
     5
420
      255
176
     1
290
     0
176
     1
 90
       50
176
     1
 90
       50
176
     1
 90
       50
176
     1
290
     0
176
     1
 90
       50
176
     1
 62
   256
176
     0
 40
1.0
176
     0
 90
        2
176
     1
  1
strokes_ogs.tif
176
     1
290
     0
176
     1
 40
1.0
176
     1
 40
1.0
176
     1
  0
VISUALSTYLE
  5
1D7
102
{ACAD_REACTORS
330
1CC
102
}
330
1CC
100
AcDbVisualStyle
  2
Dim
 70
    11
177
     3
291
     1
 70
    58
 90
        2
176
     1
 90
        2
176
     1
 90
        0
176
     1
 90
        0
176
     1
 40
0.6
176
     1
 40
30.0
176
     1
 62
     7
420
 16777215
176
     1
 90
        1
176
     1
 90
        4
176
     1
 62
     7
176
     1
 62
   257
176
     1
 90
        1
176
     1
 90
        1
176
     1
 40
1.0
176
     1
 90
        8
176
     1
 62
     7
176
     1
 40
1.0
176
     1
 90
        1
176
     1
 90
        6
176
     1
 90
        2
176
     1
 62
     7
176
     1
 90
        5
176
     1
 90
        0
176
     1
 90
        0
176
     1
290
     0
176
     1
 90
        1
176
     1
 40
-50.0
176
     1
 90
        0
176
     1
290
     0
176
     1
290
     1
176
     1
290
     1
176
     1
290
     0
176
     1
290
     0
176
     1
290
     0
176
     1
290
     0
176
     1
290
     0
176
     1
290
     0
176
     1
 90
       50
176
     1
 40
0.0
176
     1
 40
1.0
176
     1
 90
        0
176
     1
 62
    18
420
        0
176
     1
 90
       50
176
     1
 90
        3
176
     1
 62
     5
420
      255
176
     1
290
     0
176
     1
 90
       50
176
     1
 90
       50
176
     1
 90
       50
176
     1
290
     0
176
     1
 90
       50
176
     1
 62
   256
176
     0
 40
1.0
176
     0
 90
        2
176
     1
  1
strokes_ogs.tif
176
     1
290
     0
176
     1
 40
1.0
176
     1
 40
1.0
176
     1
  0
VISUALSTYLE
  5
1DF
102
{ACAD_REACTORS
330
1CC
102
}
330
1CC
100
AcDbVisualStyle
  2
EdgeColorOff
 70
    22
177
     3
291
     1
 70
    58
 90
        2
176
     0
 90
        2
176
     0
 90
        0
176
     0
 90
        0
176
     0
 40
0.6
176
     0
 40
30.0
176
     0
 62
     7
420
 16777215
176
     0
 90
        1
176
     0
 90
        4
176
     0
 62
     7
176
     0
 62
   257
176
     0
 90
        1
176
     0
 90
        1
176
     0
 40
1.0
176
     0
 90
        8
176
     2
 62
     7
176
     0
 40
1.0
176
     0
 90
        1
176
     0
 90
        6
176
     0
 90
        2
176
     0
 62
     7
176
     0
 90
        5
176
     0
 90
        0
176
     0
 90
        0
176
     0
290
     0
176
     0
 90
        1
176
     0
 40
0.0
176
     0
 90
        0
176
     0
290
     0
176
     0
290
     1
176
     0
290
     1
176
     0
290
     0
176
     0
290
     0
176
     0
290
     0
176
     0
290
     0
176
     0
290
     0
176
     0
290
     0
176
     0
 90
       50
176
     0
 40
0.0
176
     0
 40
1.0
176
     0
 90
        0
176
     0
 62
    18
420
        0
176
     0
 90
       50
176
     0
 90
        3
176
     0
 62
     5
420
      255
176
     0
290
     0
176
     0
 90
       50
176
     0
 90
       50
176
     0
 90
       50
176
     0
290
     0
176
     0
 90
       50
176
     0
 62
   256
176
     0
 40
1.0
176
     0
 90
        2
176
     0
  1
strokes_ogs.tif
176
     0
290
     0
176
     0
 40
1.0
176
     0
 40
1.0
176
     0
  0
VISUALSTYLE
  5
1DB
102
{ACAD_REACTORS
330
1CC
102
}
330
1CC
100
AcDbVisualStyle
  2
Facepattern
 70
    15
177
     3
291
     1
 70
    58
 90
        2
176
     1
 90
        2
176
     1
 90
        0
176
     1
 90
        0
176
     1
 40
0.6
176
     1
 40
30.0
176
     1
 62
     7
420
 16777215
176
     1
 90
        1
176
     1
 90
        4
176
     1
 62
     7
176
     1
 62
   257
176
     1
 90
        1
176
     1
 90
        1
176
     1
 40
1.0
176
     1
 90
        8
176
     1
 62
     7
176
     1
 40
1.0
176
     1
 90
        1
176
     1
 90
        6
176
     1
 90
        2
176
     1
 62
     7
176
     1
 90
        5
176
     1
 90
        0
176
     1
 90
        0
176
     1
290
     0
176
     1
 90
        1
176
     1
 40
0.0
176
     1
 90
        0
176
     1
290
     0
176
     1
290
     1
176
     1
290
     1
176
     1
290
     0
176
     1
290
     0
176
     1
290
     0
176
     1
290
     0
176
     1
290
     0
176
     1
290
     0
176
     1
 90
       50
176
     1
 40
0.0
176
     1
 40
1.0
176
     1
 90
        0
176
     1
 62
    18
420
        0
176
     1
 90
       50
176
     1
 90
        3
176
     1
 62
     5
420
      255
176
     1
290
     0
176
     1
 90
       50
176
     1
 90
       50
176
     1
 90
       50
176
     1
290
     0
176
     1
 90
       50
176
     1
 62
   256
176
     0
 40
1.0
176
     0
 90
        2
176
     1
  1
strokes_ogs.tif
176
     1
290
     0
176
     1
 40
1.0
176
     1
 40
1.0
176
     1
  0
VISUALSTYLE
  5
1CD
102
{ACAD_REACTORS
330
1CC
102
}
330
1CC
100
AcDbVisualStyle
  2
Flat
 70
     0
177
     3
291
     1
 70
    58
 90
        2
176
     1
 90
        1
176
     1
 90
        1
176
     1
 90
        2
176
     1
 40
0.6
176
     1
 40
30.0
176
     1
 62
     7
420
 16777215
176
     1
 90
        0
176
     1
 90
        0
176
     1
 62
     7
176
     1
 62
   257
176
     1
 90
        1
176
     1
 90
        1
176
     1
 40
1.0
176
     1
 90
        8
176
     1
 62
     7
176
     1
 40
1.0
176
     1
 90
        1
176
     1
 90
        6
176
     1
 90
        2
176
     1
 62
     7
176
     1
 90
        5
176
     1
 90
        0
176
     1
 90
        0
176
     1
290
     0
176
     1
 90
       13
176
     1
 40
0.0
176
     1
 90
        0
176
     1
290
     0
176
     1
290
     1
176
     1
290
     1
176
     1
290
     0
176
     1
290
     0
176
     1
290
     0
176
     1
290
     0
176
     1
290
     0
176
     1
290
     0
176
     1
 90
       50
176
     1
 40
0.0
176
     1
 40
1.0
176
     1
 90
        0
176
     1
 62
    18
420
        0
176
     1
 90
       50
176
     1
 90
        3
176
     1
 62
     5
420
      255
176
     1
290
     0
176
     1
 90
       50
176
     1
 90
       50
176
     1
 90
       50
176
     1
290
     0
176
     1
 90
       50
176
     1
 62
   256
176
     0
 40
1.0
176
     0
 90
        2
176
     1
  1
strokes_ogs.tif
176
     1
290
     0
176
     1
 40
1.0
176
     1
 40
1.0
176
     1
  0
VISUALSTYLE
  5
1CE
102
{ACAD_REACTORS
330
1CC
102
}
330
1CC
100
AcDbVisualStyle
  2
FlatWithEdges
 70
     1
177
     3
291
     1
 70
    58
 90
        2
176
     1
 90
        1
176
     1
 90
        1
176
     1
 90
        2
176
     1
 40
0.6
176
     1
 40
30.0
176
     1
 62
     7
420
 16777215
176
     1
 90
        1
176
     1
 90
        0
176
     1
 62
     7
176
     1
 62
   257
176
     1
 90
        1
176
     1
 90
        1
176
     1
 40
1.0
176
     1
 90
        0
176
     1
 62
   257
176
     1
 40
1.0
176
     1
 90
        1
176
     1
 90
        6
176
     1
 90
        2
176
     1
 62
     7
176
     1
 90
        5
176
     1
 90
        0
176
     1
 90
        0
176
     1
290
     0
176
     1
 90
       13
176
     1
 40
0.0
176
     1
 90
        0
176
     1
290
     0
176
     1
290
     1
176
     1
290
     1
176
     1
290
     0
176
     1
290
     0
176
     1
290
     0
176
     1
290
     0
176
     1
290
     0
176
     1
290
     0
176
     1
 90
       50
176
     1
 40
0.0
176
     1
 40
1.0
176
     1
 90
        0
176
     1
 62
    18
420
        0
176
     1
 90
       50
176
     1
 90
        3
176
     1
 62
     5
420
      255
176
     1
290
     0
176
     1
 90
       50
176
     1
 90
       50
176
     1
 90
       50
176
     1
290
     0
176
     1
 90
       50
176
     1
 62
   256
176
     0
 40
1.0
176
     0
 90
        2
176
     1
  1
strokes_ogs.tif
176
     1
290
     0
176
     1
 40
1.0
176
     1
 40
1.0
176
     1
  0
VISUALSTYLE
  5
1CF
102
{ACAD_REACTORS
330
1CC
102
}
330
1CC
100
AcDbVisualStyle
  2
Gouraud
 70
     2
177
     3
291
     1
 70
    58
 90
        2
176
     1
 90
        2
176
     1
 90
        1
176
     1
 90
        2
176
     1
 40
0.6
176
     1
 40
30.0
176
     1
 62
     7
420
 16777215
176
     1
 90
        0
176
     1
 90
        0
176
     1
 62
     7
176
     1
 62
   257
176
     1
 90
        1
176
     1
 90
        1
176
     1
 40
1.0
176
     1
 90
        0
176
     1
 62
     7
176
     1
 40
1.0
176
     1
 90
        1
176
     1
 90
        6
176
     1
 90
        2
176
     1
 62
     7
176
     1
 90
        5
176
     1
 90
        0
176
     1
 90
        0
176
     1
290
     0
176
     1
 90
       13
176
     1
 40
0.0
176
     1
 90
        0
176
     1
290
     0
176
     1
290
     1
176
     1
290
     1
176
     1
290
     0
176
     1
290
     0
176
     1
290
     0
176
     1
290
     0
176
     1
290
     0
176
     1
290
     0
176
     1
 90
       50
176
     1
 40
0.0
176
     1
 40
1.0
176
     1
 90
        0
176
     1
 62
    18
420
        0
176
     1
 90
       50
176
     1
 90
        3
176
     1
 62
     5
420
      255
176
     1
290
     0
176
     1
 90
       50
176
     1
 90
       50
176
     1
 90
       50
176
     1
290
     0
176
     1
 90
       50
176
     1
 62
   256
176
     0
 40
1.0
176
     0
 90
        2
176
     1
  1
strokes_ogs.tif
176
     1
290
     0
176
     1
 40
1.0
176
     1
 40
1.0
176
     1
  0
VISUALSTYLE
  5
1D0
102
{ACAD_REACTORS
330
1CC
102
}
330
1CC
100
AcDbVisualStyle
  2
GouraudWithEdges
 70
     3
177
     3
291
     1
 70
    58
 90
        2
176
     1
 90
        2
176
     1
 90
        1
176
     1
 90
        2
176
     1
 40
0.6
176
     1
 40
30.0
176
     1
 62
     7
420
 16777215
176
     1
 90
        1
176
     1
 90
        0
176
     1
 62
     7
176
     1
 62
   257
176
     1
 90
        1
176
     1
 90
        1
176
     1
 40
1.0
176
     1
 90
        0
176
     1
 62
   257
176
     1
 40
1.0
176
     1
 90
        1
176
     1
 90
        6
176
     1
 90
        2
176
     1
 62
     7
176
     1
 90
        5
176
     1
 90
        0
176
     1
 90
        0
176
     1
290
     0
176
     1
 90
       13
176
     1
 40
0.0
176
     1
 90
        0
176
     1
290
     0
176
     1
290
     1
176
     1
290
     1
176
     1
290
     0
176
     1
290
     0
176
     1
290
     0
176
     1
290
     0
176
     1
290
     0
176
     1
290
     0
176
     1
 90
       50
176
     1
 40
0.0
176
     1
 40
1.0
176
     1
 90
        0
176
     1
 62
    18
420
        0
176
     1
 90
       50
176
     1
 90
        3
176
     1
 62
     5
420
      255
176
     1
290
     0
176
     1
 90
       50
176
     1
 90
       50
176
     1
 90
       50
176
     1
290
     0
176
     1
 90
       50
176
     1
 62
   256
176
     0
 40
1.0
176
     0
 90
        2
176
     1
  1
strokes_ogs.tif
176
     1
290
     0
176
     1
 40
1.0
176
     1
 40
1.0
176
     1
  0
VISUALSTYLE
  5
1D3
102
{ACAD_REACTORS
330
1CC
102
}
330
1CC
100
AcDbVisualStyle
  2
Hidden
 70
     6
177
     3
291
     0
 70
    58
 90
        1
176
     1
 90
        2
176
     1
 90
        2
176
     1
 90
        0
176
     1
 40
0.6
176
     1
 40
30.0
176
     1
 62
     7
420
 16777215
176
     1
 90
        2
176
     1
 90
        2
176
     1
 62
     7
176
     1
 62
   257
176
     1
 90
        2
176
     1
 90
        1
176
     1
 40
40.0
176
     1
 90
        0
176
     1
 62
   257
176
     1
 40
1.0
176
     1
 90
        1
176
     1
 90
        6
176
     1
 90
        2
176
     1
 62
     7
176
     1
 90
        3
176
     1
 90
        0
176
     1
 90
        0
176
     1
290
     0
176
     1
 90
        1
176
     1
 40
0.0
176
     1
 90
        0
176
     1
290
     0
176
     1
290
     1
176
     1
290
     1
176
     1
290
     0
176
     1
290
     0
176
     1
290
     0
176
     1
290
     0
176
     1
290
     0
176
     1
290
     0
176
     1
 90
       50
176
     1
 40
0.0
176
     1
 40
1.0
176
     1
 90
        0
176
     1
 62
    18
420
        0
176
     1
 90
       50
176
     1
 90
        3
176
     1
 62
     5
420
      255
176
     1
290
     0
176
     1
 90
       50
176
     1
 90
       50
176
     1
 90
       50
176
     1
290
     0
176
     1
 90
       50
176
     1
 62
   256
176
     0
 40
1.0
176
     0
 90
        2
176
     1
  1
strokes_ogs.tif
176
     1
290
     0
176
     1
 40
1.0
176
     1
 40
1.0
176
     1
  0
VISUALSTYLE
  5
1DD
102
{ACAD_REACTORS
330
1CC
102
}
330
1CC
100
AcDbVisualStyle
  2
JitterOff
 70
    20
177
     3
291
     1
 70
    58
 90
        2
176
     0
 90
        2
176
     0
 90
        0
176
     0
 90
        0
176
     0
 40
0.6
176
     0
 40
30.0
176
     0
 62
     7
420
 16777215
176
     0
 90
        1
176
     0
 90
        4
176
     0
 62
     7
176
     0
 62
   257
176
     0
 90
        1
176
     0
 90
        1
176
     0
 40
1.0
176
     0
 90
       10
176
     2
 62
     7
176
     0
 40
1.0
176
     0
 90
        1
176
     0
 90
        6
176
     0
 90
        2
176
     0
 62
     7
176
     0
 90
        5
176
     0
 90
        0
176
     0
 90
        0
176
     0
290
     0
176
     0
 90
        1
176
     0
 40
0.0
176
     0
 90
        0
176
     0
290
     0
176
     0
290
     1
176
     0
290
     1
176
     0
290
     0
176
     0
290
     0
176
     0
290
     0
176
     0
290
     0
176
     0
290
     0
176
     0
290
     0
176
     0
 90
       50
176
     0
 40
0.0
176
     0
 40
1.0
176
     0
 90
        0
176
     0
 62
    18
420
        0
176
     0
 90
       50
176
     0
 90
        3
176
     0
 62
     5
420
      255
176
     0
290
     0
176
     0
 90
       50
176
     0
 90
       50
176
     0
 90
       50
176
     0
290
     0
176
     0
 90
       50
176
     0
 62
   256
176
     0
 40
1.0
176
     0
 90
        2
176
     0
  1
strokes_ogs.tif
176
     0
290
     0
176
     0
 40
1.0
176
     0
 40
1.0
176
     0
  0
VISUALSTYLE
  5
1DA
102
{ACAD_REACTORS
330
1CC
102
}
330
1CC
100
AcDbVisualStyle
  2
Linepattern
 70
    14
177
     3
291
     1
 70
    58
 90
        2
176
     1
 90
        2
176
     1
 90
        0
176
     1
 90
        0
176
     1
 40
0.6
176
     1
 40
30.0
176
     1
 62
     7
420
 16777215
176
     1
 90
        1
176
     1
 90
        4
176
     1
 62
     7
176
     1
 62
   257
176
     1
 90
        7
176
     1
 90
        7
176
     1
 40
1.0
176
     1
 90
        8
176
     1
 62
     7
176
     1
 40
1.0
176
     1
 90
        1
176
     1
 90
        6
176
     1
 90
        2
176
     1
 62
     7
176
     1
 90
        5
176
     1
 90
        0
176
     1
 90
        0
176
     1
290
     0
176
     1
 90
        1
176
     1
 40
0.0
176
     1
 90
        0
176
     1
290
     0
176
     1
290
     1
176
     1
290
     1
176
     1
290
     0
176
     1
290
     0
176
     1
290
     0
176
     1
290
     0
176
     1
290
     0
176
     1
290
     0
176
     1
 90
       50
176
     1
 40
0.0
176
     1
 40
1.0
176
     1
 90
        0
176
     1
 62
    18
420
        0
176
     1
 90
       50
176
     1
 90
        3
176
     1
 62
     5
420
      255
176
     1
290
     0
176
     1
 90
       50
176
     1
 90
       50
176
     1
 90
       50
176
     1
290
     0
176
     1
 90
       50
176
     1
 62
   256
176
     0
 40
1.0
176
     0
 90
        2
176
     1
  1
strokes_ogs.tif
176
     1
290
     0
176
     1
 40
1.0
176
     1
 40
1.0
176
     1
  0
VISUALSTYLE
  5
1DE
102
{ACAD_REACTORS
330
1CC
102
}
330
1CC
100
AcDbVisualStyle
  2
OverhangOff
 70
    21
177
     3
291
     1
 70
    58
 90
        2
176
     0
 90
        2
176
     0
 90
        0
176
     0
 90
        0
176
     0
 40
0.6
176
     0
 40
30.0
176
     0
 62
     7
420
 16777215
176
     0
 90
        1
176
     0
 90
        4
176
     0
 62
     7
176
     0
 62
   257
176
     0
 90
        1
176
     0
 90
        1
176
     0
 40
1.0
176
     0
 90
        9
176
     2
 62
     7
176
     0
 40
1.0
176
     0
 90
        1
176
     0
 90
        6
176
     0
 90
        2
176
     0
 62
     7
176
     0
 90
        5
176
     0
 90
        0
176
     0
 90
        0
176
     0
290
     0
176
     0
 90
        1
176
     0
 40
0.0
176
     0
 90
        0
176
     0
290
     0
176
     0
290
     1
176
     0
290
     1
176
     0
290
     0
176
     0
290
     0
176
     0
290
     0
176
     0
290
     0
176
     0
290
     0
176
     0
290
     0
176
     0
 90
       50
176
     0
 40
0.0
176
     0
 40
1.0
176
     0
 90
        0
176
     0
 62
    18
420
        0
176
     0
 90
       50
176
     0
 90
        3
176
     0
 62
     5
420
      255
176
     0
290
     0
176
     0
 90
       50
176
     0
 90
       50
176
     0
 90
       50
176
     0
290
     0
176
     0
 90
       50
176
     0
 62
   256
176
     0
 40
1.0
176
     0
 90
        2
176
     0
  1
strokes_ogs.tif
176
     0
290
     0
176
     0
 40
1.0
176
     0
 40
1.0
176
     0
  0
VISUALSTYLE
  5
1D5
102
{ACAD_REACTORS
330
1CC
102
}
330
1CC
100
AcDbVisualStyle
  2
Realistic
 70
     8
177
     3
291
     0
 70
    58
 90
        2
176
     1
 90
        3
176
     1
 90
        0
176
     1
 90
        2
176
     1
 40
0.6
176
     1
 40
30.0
176
     1
 62
     7
420
 16777215
176
     1
 90
        0
176
     1
 90
        0
176
     1
 62
     7
176
     1
 62
   257
176
     1
 90
        1
176
     1
 90
        1
176
     1
 40
1.0
176
     1
 90
        8
176
     1
 62
   257
176
     1
 40
1.0
176
     1
 90
        1
176
     1
 90
        6
176
     1
 90
        2
176
     1
 62
     7
176
     1
 90
        3
176
     1
 90
        0
176
     1
 90
        0
176
     1
290
     0
176
     1
 90
       13
176
     1
 40
0.0
176
     1
 90
        0
176
     1
290
     0
176
     1
290
     1
176
     1
290
     1
176
     1
290
     0
176
     1
290
     0
176
     1
290
     0
176
     1
290
     0
176
     1
290
     0
176
     1
290
     0
176
     1
 90
       50
176
     1
 40
0.0
176
     1
 40
1.0
176
     1
 90
        0
176
     1
 62
    18
420
        0
176
     1
 90
       50
176
     1
 90
        3
176
     1
 62
     5
420
      255
176
     1
290
     0
176
     1
 90
       50
176
     1
 90
       50
176
     1
 90
       50
176
     1
290
     0
176
     1
 90
       50
176
     1
 62
   256
176
     0
 40
1.0
176
     0
 90
        2
176
     1
  1
strokes_ogs.tif
176
     1
290
     0
176
     1
 40
1.0
176
     1
 40
1.0
176
     1
  0
VISUALSTYLE
  5
1E4
102
{ACAD_REACTORS
330
1CC
102
}
330
1CC
100
AcDbVisualStyle
  2
Shaded
 70
    27
177
     3
291
     0
 70
    58
 90
        2
176
     1
 90
        2
176
     1
 90
        1
176
     1
 90
        2
176
     1
 40
0.6
176
     1
 40
30.0
176
     1
 62
     7
420
 16777215
176
     1
 90
        0
176
     1
 90
        4
176
     1
 62
     7
176
     1
 62
   257
176
     1
 90
        1
176
     1
 90
        1
176
     1
 40
1.0
176
     1
 90
        8
176
     1
 62
   257
176
     1
 40
1.0
176
     1
 90
        1
176
     1
 90
        6
176
     1
 90
        2
176
     1
 62
     8
420
  7895160
176
     1
 90
        3
176
     1
 90
        0
176
     1
 90
        0
176
     1
290
     0
176
     1
 90
        5
176
     1
 40
0.0
176
     1
 90
        0
176
     1
290
     0
176
     1
290
     1
176
     1
290
     1
176
     1
290
     0
176
     1
290
     0
176
     1
290
     0
176
     1
290
     0
176
     1
290
     0
176
     1
290
     0
176
     1
 90
       50
176
     1
 40
0.0
176
     1
 40
1.0
176
     1
 90
        0
176
     1
 62
    18
420
        0
176
     1
 90
       50
176
     1
 90
        3
176
     1
 62
     5
420
      255
176
     1
290
     0
176
     1
 90
       50
176
     1
 90
       50
176
     1
 90
       50
176
     1
290
     0
176
     1
 90
       50
176
     1
 62
   256
176
     0
 40
1.0
176
     0
 90
        2
176
     1
  1
strokes_ogs.tif
176
     1
290
     0
176
     1
 40
1.0
176
     1
 40
1.0
176
     1
  0
VISUALSTYLE
  5
1E3
102
{ACAD_REACTORS
330
1CC
102
}
330
1CC
100
AcDbVisualStyle
  2
Shaded with edges
 70
    26
177
     3
291
     0
 70
    58
 90
        2
176
     1
 90
        2
176
     1
 90
        1
176
     1
 90
        2
176
     1
 40
0.6
176
     1
 40
30.0
176
     1
 62
     7
420
 16777215
176
     1
 90
        1
176
     1
 90
       10
176
     1
 62
     7
176
     1
 62
   257
176
     1
 90
        2
176
     1
 90
        1
176
     1
 40
1.0
176
     1
 90
        8
176
     1
 62
   257
176
     1
 40
1.0
176
     1
 90
        1
176
     1
 90
        6
176
     1
 90
        2
176
     1
 62
     7
176
     1
 90
        3
176
     1
 90
        0
176
     1
 90
        0
176
     1
290
     0
176
     1
 90
        5
176
     1
 40
0.0
176
     1
 90
        0
176
     1
290
     0
176
     1
290
     1
176
     1
290
     1
176
     1
290
     0
176
     1
290
     0
176
     1
290
     0
176
     1
290
     0
176
     1
290
     0
176
     1
290
     0
176
     1
 90
       50
176
     1
 40
0.0
176
     1
 40
1.0
176
     1
 90
        0
176
     1
 62
    18
420
        0
176
     1
 90
       50
176
     1
 90
        3
176
     1
 62
     5
420
      255
176
     1
290
     0
176
     1
 90
       50
176
     1
 90
       50
176
     1
 90
       50
176
     1
290
     0
176
     1
 90
       50
176
     1
 62
   256
176
     0
 40
1.0
176
     0
 90
        2
176
     1
  1
strokes_ogs.tif
176
     1
290
     0
176
     1
 40
1.0
176
     1
 40
1.0
176
     1
  0
VISUALSTYLE
  5
1E0
102
{ACAD_REACTORS
330
1CC
102
}
330
1CC
100
AcDbVisualStyle
  2
Shades of Gray
 70
    23
177
     3
291
     0
 70
    58
 90
        2
176
     1
 90
        2
176
     1
 90
        3
176
     1
 90
        0
176
     1
 40
0.6
176
     1
 40
30.0
176
     1
 62
     7
420
 16777215
176
     1
 90
        2
176
     1
 90
        2
176
     1
 62
     7
176
     1
 62
     7
176
     1
 90
        1
176
     1
 90
        1
176
     1
 40
40.0
176
     1
 90
        8
176
     1
 62
     7
176
     1
 40
1.0
176
     1
 90
        1
176
     1
 90
        6
176
     1
 90
        2
176
     1
 62
     7
176
     1
 90
        3
176
     1
 90
        0
176
     1
 90
        0
176
     1
290
     0
176
     1
 90
        1
176
     1
 40
0.0
176
     1
 90
        0
176
     1
290
     0
176
     1
290
     1
176
     1
290
     1
176
     1
290
     0
176
     1
290
     0
176
     1
290
     0
176
     1
290
     0
176
     1
290
     0
176
     1
290
     0
176
     1
 90
       50
176
     1
 40
0.0
176
     1
 40
1.0
176
     1
 90
        0
176
     1
 62
    18
420
        0
176
     1
 90
       50
176
     1
 90
        3
176
     1
 62
     5
420
      255
176
     1
290
     0
176
     1
 90
       50
176
     1
 90
       50
176
     1
 90
       50
176
     1
290
     0
176
     1
 90
       50
176
     1
 62
   256
176
     0
 40
1.0
176
     0
 90
        2
176
     1
  1
strokes_ogs.tif
176
     1
290
     0
176
     1
 40
1.0
176
     1
 40
1.0
176
     1
  0
VISUALSTYLE
  5
1E1
102
{ACAD_REACTORS
330
1CC
102
}
330
1CC
100
AcDbVisualStyle
  2
Sketchy
 70
    24
177
     3
291
     0
 70
    58
 90
        1
176
     1
 90
        2
176
     1
 90
        2
176
     1
 90
        0
176
     1
 40
0.6
176
     1
 40
30.0
176
     1
 62
     7
420
 16777215
176
     1
 90
        2
176
     1
 90
        2
176
     1
 62
     7
176
     1
 62
     7
176
     1
 90
        1
176
     1
 90
        1
176
     1
 40
40.0
176
     1
 90
       11
176
     1
 62
     7
176
     1
 40
1.0
176
     1
 90
        1
176
     1
 90
        6
176
     1
 90
        2
176
     1
 62
     7
176
     1
 90
        6
176
     1
 90
        0
176
     1
 90
        0
176
     1
290
     0
176
     1
 90
        1
176
     1
 40
0.0
176
     1
 90
        0
176
     1
290
     0
176
     1
290
     1
176
     1
290
     1
176
     1
290
     0
176
     1
290
     0
176
     1
290
     0
176
     1
290
     0
176
     1
290
     0
176
     1
290
     0
176
     1
 90
       50
176
     1
 40
0.0
176
     1
 40
1.0
176
     1
 90
        0
176
     1
 62
    18
420
        0
176
     1
 90
       50
176
     1
 90
        3
176
     1
 62
     5
420
      255
176
     1
290
     0
176
     1
 90
       50
176
     1
 90
       50
176
     1
 90
       50
176
     1
290
     0
176
     1
 90
       50
176
     1
 62
   256
176
     0
 40
1.0
176
     0
 90
        2
176
     1
  1
strokes_ogs.tif
176
     1
290
     0
176
     1
 40
1.0
176
     1
 40
1.0
176
     1
  0
VISUALSTYLE
  5
1D9
102
{ACAD_REACTORS
330
1CC
102
}
330
1CC
100
AcDbVisualStyle
  2
Thicken
 70
    13
177
     3
291
     1
 70
    58
 90
        2
176
     1
 90
        2
176
     1
 90
        0
176
     1
 90
        0
176
     1
 40
0.6
176
     1
 40
30.0
176
     1
 62
     7
420
 16777215
176
     1
 90
        1
176
     1
 90
        4
176
     1
 62
     7
176
     1
 62
   257
176
     1
 90
        1
176
     1
 90
        1
176
     1
 40
1.0
176
     1
 90
       12
176
     1
 62
     7
176
     1
 40
1.0
176
     1
 90
        1
176
     1
 90
        6
176
     1
 90
        2
176
     1
 62
     7
176
     1
 90
        5
176
     1
 90
        0
176
     1
 90
        0
176
     1
290
     0
176
     1
 90
        1
176
     1
 40
0.0
176
     1
 90
        0
176
     1
290
     0
176
     1
290
     1
176
     1
290
     1
176
     1
290
     0
176
     1
290
     0
176
     1
290
     0
176
     1
290
     0
176
     1
290
     0
176
     1
290
     0
176
     1
 90
       50
176
     1
 40
0.0
176
     1
 40
1.0
176
     1
 90
        0
176
     1
 62
    18
420
        0
176
     1
 90
       50
176
     1
 90
        3
176
     1
 62
     5
420
      255
176
     1
290
     0
176
     1
 90
       50
176
     1
 90
       50
176
     1
 90
       50
176
     1
290
     0
176
     1
 90
       50
176
     1
 62
   256
176
     0
 40
1.0
176
     0
 90
        2
176
     1
  1
strokes_ogs.tif
176
     1
290
     0
176
     1
 40
1.0
176
     1
 40
1.0
176
     1
  0
VISUALSTYLE
  5
1D2
102
{ACAD_REACTORS
330
1CC
102
}
330
1CC
100
AcDbVisualStyle
  2
Wireframe
 70
     5
177
     3
291
     0
 70
    58
 90
        0
176
     1
 90
        2
176
     1
 90
        0
176
     1
 90
        0
176
     1
 40
0.6
176
     1
 40
30.0
176
     1
 62
     7
420
 16777215
176
     1
 90
        1
176
     1
 90
        4
176
     1
 62
     7
176
     1
 62
   257
176
     1
 90
        1
176
     1
 90
        1
176
     1
 40
1.0
176
     1
 90
        0
176
     1
 62
   257
176
     1
 40
1.0
176
     1
 90
        1
176
     1
 90
        6
176
     1
 90
        2
176
     1
 62
     7
176
     1
 90
        3
176
     1
 90
        0
176
     1
 90
        0
176
     1
290
     0
176
     1
 90
        1
176
     1
 40
0.0
176
     1
 90
        0
176
     1
290
     0
176
     1
290
     1
176
     1
290
     1
176
     1
290
     0
176
     1
290
     0
176
     1
290
     0
176
     1
290
     0
176
     1
290
     0
176
     1
290
     0
176
     1
 90
       50
176
     1
 40
0.0
176
     1
 40
1.0
176
     1
 90
        0
176
     1
 62
    18
420
        0
176
     1
 90
       50
176
     1
 90
        3
176
     1
 62
     5
420
      255
176
     1
290
     0
176
     1
 90
       50
176
     1
 90
       50
176
     1
 90
       50
176
     1
290
     0
176
     1
 90
       50
176
     1
 62
   256
176
     0
 40
1.0
176
     0
 90
        2
176
     1
  1
strokes_ogs.tif
176
     1
290
     0
176
     1
 40
1.0
176
     1
 40
1.0
176
     1
  0
VISUALSTYLE
  5
1E2
102
{ACAD_REACTORS
330
1CC
102
}
330
1CC
100
AcDbVisualStyle
  2
X-Ray
 70
    25
177
     3
291
     0
 70
    58
 90
        2
176
     1
 90
        2
176
     1
 90
        1
176
     1
 90
        1
176
     1
 40
0.5
176
     1
 40
30.0
176
     1
 62
     7
420
 16777215
176
     1
 90
        1
176
     1
 90
        0
176
     1
 62
     7
176
     1
 62
   257
176
     1
 90
        1
176
     1
 90
        1
176
     1
 40
1.0
176
     1
 90
        8
176
     1
 62
     7
176
     1
 40
1.0
176
     1
 90
        1
176
     1
 90
        6
176
     1
 90
        2
176
     1
 62
     7
176
     1
 90
        3
176
     1
 90
        0
176
     1
 90
        0
176
     1
290
     0
176
     1
 90
       13
176
     1
 40
0.0
176
     1
 90
        0
176
     1
290
     0
176
     1
290
     1
176
     1
290
     1
176
     1
290
     0
176
     1
290
     0
176
     1
290
     0
176
     1
290
     0
176
     1
290
     0
176
     1
290
     0
176
     1
 90
       50
176
     1
 40
0.0
176
     1
 40
1.0
176
     1
 90
        0
176
     1
 62
    18
420
        0
176
     1
 90
       50
176
     1
 90
        3
176
     1
 62
     5
420
      255
176
     1
290
     0
176
     1
 90
       50
176
     1
 90
       50
176
     1
 90
       50
176
     1
290
     0
176
     1
 90
       50
176
     1
 62
   256
176
     0
 40
1.0
176
     0
 90
        2
176
     1
  1
strokes_ogs.tif
176
     1
290
     0
176
     1
 40
1.0
176
     1
 40
1.0
176
     1
  0
DICTIONARYVAR
  5
302
102
{ACAD_REACTORS
330
301
102
}
330
301
100
DictionaryVariables
280
     0
  1
1:1
  0
DICTIONARYVAR
  5
307
102
{ACAD_REACTORS
330
301
102
}
330
301
100
DictionaryVariables
280
     0
  1
Standard
  0
DICTIONARYVAR
  5
306
102
{ACAD_REACTORS
330
301
102
}
330
301
100
DictionaryVariables
280
     0
  1
Standard
  0
XRECORD
  5
213
102
{ACAD_REACTORS
330
211
102
}
330
211
100
AcDbXrecord
280
     1
1000
#ffffff
  0
XRECORD
  5
214
102
{ACAD_REACTORS
330
211
102
}
330
211
100
AcDbXrecord
280
     1
1000
FullColor
  0
XRECORD
  5
215
102
{ACAD_REACTORS
330
211
102
}
330
211
100
AcDbXrecord
280
     1
290
     1
  0
XRECORD
  5
216
102
{ACAD_REACTORS
330
211
102
}
330
211
100
AcDbXrecord
280
     1
290
     1
  0
XRECORD
  5
217
102
{ACAD_REACTORS
330
211
102
}
330
211
100
AcDbXrecord
280
     1
290
     1
  0
XRECORD
  5
218
102
{ACAD_REACTORS
330
211
102
}
330
211
100
AcDbXrecord
280
     1
290
     1
  0
XRECORD
  5
219
102
{ACAD_REACTORS
330
211
102
}
330
211
100
AcDbXrecord
280
     1
1000
auto
  0
XRECORD
  5
21A
102
{ACAD_REACTORS
330
211
102
}
330
211
100
AcDbXrecord
280
     1
1000
auto
  0
XRECORD
  5
21B
102
{ACAD_REACTORS
330
211
102
}
330
211
100
AcDbXrecord
280
     1
1000
auto
  0
XRECORD
  5
21C
102
{ACAD_REACTORS
330
211
102
}
330
211
100
AcDbXrecord
280
     1
1000
auto
  0
XRECORD
  5
21D
102
{ACAD_REACTORS
330
211
102
}
330
211
100
AcDbXrecord
280
     1
1000
auto
  0
XRECORD
  5
21E
102
{ACAD_REACTORS
330
211
102
}
330
211
100
AcDbXrecord
280
     1
1000
auto
  0
XRECORD
  5
21F
102
{ACAD_REACTORS
330
211
102
}
330
211
100
AcDbXrecord
280
     1
1000
auto
  0
XRECORD
  5
220
102
{ACAD_REACTORS
330
211
102
}
330
211
100
AcDbXrecord
280
     1
1000
auto
  0
XRECORD
  5
221
102
{ACAD_REACTORS
330
211
102
}
330
211
100
AcDbXrecord
280
     1
290
     0
  0
XRECORD
  5
222
102
{ACAD_REACTORS
330
211
102
}
330
211
100
AcDbXrecord
280
     1
290
     0
  0
XRECORD
  5
223
102
{ACAD_REACTORS
330
211
102
}
330
211
100
AcDbXrecord
280
     1
290
     0
  0
XRECORD
  5
224
102
{ACAD_REACTORS
330
211
102
}
330
211
100
AcDbXrecord
280
     1
290
     0
  0
XRECORD
  5
225
102
{ACAD_REACTORS
330
211
102
}
330
211
100
AcDbXrecord
280
     1
 90
        0
  0
XRECORD
  5
226
102
{ACAD_REACTORS
330
211
102
}
330
211
100
AcDbXrecord
280
     1
 90
        0
  0
XRECORD
  5
227
102
{ACAD_REACTORS
330
211
102
}
330
211
100
AcDbXrecord
280
     1
 90
        0
  0
XRECORD
  5
228
102
{ACAD_REACTORS
330
211
102
}
330
211
100
AcDbXrecord
280
     1
 90
        0
  0
XRECORD
  5
229
102
{ACAD_REACTORS
330
211
102
}
330
211
100
AcDbXrecord
280
     1
1000
auto
  0
XRECORD
  5
22A
102
{ACAD_REACTORS
330
211
102
}
330
211
100
AcDbXrecord
280
     1
1000
auto
  0
XRECORD
  5
22B
102
{ACAD_REACTORS
330
211
102
}
330
211
100
AcDbXrecord
280
     1
1000
auto
  0
XRECORD
  5
22C
102
{ACAD_REACTORS
330
211
102
}
330
211
100
AcDbXrecord
280
     1
1000
auto
  0
XRECORD
  5
22D
102
{ACAD_REACTORS
330
211
102
}
330
211
100
AcDbXrecord
280
     1
1000
auto
  0
XRECORD
  5
22E
102
{ACAD_REACTORS
330
211
102
}
330
211
100
AcDbXrecord
280
     1
1000
auto
  0
XRECORD
  5
22F
102
{ACAD_REACTORS
330
211
102
}
330
211
100
AcDbXrecord
280
     1
1000
auto
  0
XRECORD
  5
230
102
{ACAD_REACTORS
330
211
102
}
330
211
100
AcDbXrecord
280
     1
1000
auto
  0
XRECORD
  5
231
102
{ACAD_REACTORS
330
211
102
}
330
211
100
AcDbXrecord
280
     1
 90
        1
  0
XRECORD
  5
232
102
{ACAD_REACTORS
330
211
102
}
330
211
100
AcDbXrecord
280
     1
 40
10.0
  0
XRECORD
  5
233
102
{ACAD_REACTORS
330
211
102
}
330
211
100
AcDbXrecord
280
     1
 40
10.0
  0
XRECORD
  5
234
102
{ACAD_REACTORS
330
211
102
}
330
211
100
AcDbXrecord
280
     1
 40
10.0
  0
XRECORD
  5
235
102
{ACAD_REACTORS
330
211
102
}
330
211
100
AcDbXrecord
280
     1
 40
10.0
  0
XRECORD
  5
236
102
{ACAD_REACTORS
330
211
102
}
330
211
100
AcDbXrecord
280
     1
290
     0
  0
XRECORD
  5
237
102
{ACAD_REACTORS
330
211
102
}
330
211
100
AcDbXrecord
280
     1
 90
        1
  0
XRECORD
  5
238
102
{ACAD_REACTORS
330
211
102
}
330
211
100
AcDbXrecord
280
     1
 40
-43.18488529014849
  0
XRECORD
  5
239
102
{ACAD_REACTORS
330
211
102
}
330
211
100
AcDbXrecord
280
     1
 40
-147.7914979757085
  0
XRECORD
  5
23A
102
{ACAD_REACTORS
330
211
102
}
330
211
100
AcDbXrecord
280
     1
1000
Landscape
  0
XRECORD
  5
23B
102
{ACAD_REACTORS
330
211
102
}
330
211
100
AcDbXrecord
280
     1
 40
297.0
  0
XRECORD
  5
23C
102
{ACAD_REACTORS
330
211
102
}
330
211
100
AcDbXrecord
280
     1
 40
210.0
  0
XRECORD
  5
23D
102
{ACAD_REACTORS
330
211
102
}
330
211
100
AcDbXrecord
280
     1
1000
1:1
  0
XRECORD
  5
23E
102
{ACAD_REACTORS
330
211
102
}
330
211
100
AcDbXrecord
280
     1
290
     1
  0
XRECORD
  5
23F
102
{ACAD_REACTORS
330
211
102
}
330
211
100
AcDbXrecord
280
     1
1000
3.11.3
  0
XRECORD
  5
240
102
{ACAD_REACTORS
330
211
102
}
330
211
100
AcDbXrecord
280
     1
 90
        4
  0
DICTIONARY
  5
303
330
20C
100
AcDbDictionary
280
     1
281
     1
  3
ACAD_ROUNDTRIP_2008_TABLESTYLE_CELLSTYLEMAP
360
304
  0
CELLSTYLEMAP
  5
304
102
{ACAD_REACTORS
330
303
102
}
330
303
100
AcDbCellStyleMap
 90
        3
300
CELLSTYLE
  1
TABLEFORMAT_BEGIN
 90
        5
170
     1
 91
        0
 92
    32768
 62
   257
 93
        1
300
CONTENTFORMAT
  1
CONTENTFORMAT_BEGIN
 90
        0
 91
        0
 92
        4
 93
        0
300

 40
0.0
140
1.0
 94
        5
 62
     0
340
1B4
144
0.25
309
CONTENTFORMAT_END
171
     1
301
MARGIN
  1
CELLMARGIN_BEGIN
 40
0.06
 40
0.06
 40
0.06
 40
0.06
 40
0.06
 40
0.06
309
CELLMARGIN_END
 94
        6
 95
        1
302
GRIDFORMAT
  1
GRIDFORMAT_BEGIN
 90
        0
 91
        1
 62
     0
 92
       -2
340
1B6
 93
        0
 40
0.045
309
GRIDFORMAT_END
 95
        2
302
GRIDFORMAT
  1
GRIDFORMAT_BEGIN
 90
        0
 91
        1
 62
     0
 92
       -2
340
1B6
 93
        0
 40
0.045
309
GRIDFORMAT_END
 95
        4
302
GRIDFORMAT
  1
GRIDFORMAT_BEGIN
 90
        0
 91
        1
 62
     0
 92
       -2
340
1B6
 93
        0
 40
0.045
309
GRIDFORMAT_END
 95
        8
302
GRIDFORMAT
  1
GRIDFORMAT_BEGIN
 90
        0
 91
        1
 62
     0
 92
       -2
340
1B6
 93
        0
 40
0.045
309
GRIDFORMAT_END
 95
       16
302
GRIDFORMAT
  1
GRIDFORMAT_BEGIN
 90
        0
 91
        1
 62
     0
 92
       -2
340
1B6
 93
        0
 40
0.045
309
GRIDFORMAT_END
 95
       32
302
GRIDFORMAT
  1
GRIDFORMAT_BEGIN
 90
        0
 91
        1
 62
     0
 92
       -2
340
1B6
 93
        0
 40
0.045
309
GRIDFORMAT_END
309
TABLEFORMAT_END
  1
CELLSTYLE_BEGIN
 90
        1
 91
        1
300
_TITLE
309
CELLSTYLE_END
300
CELLSTYLE
  1
TABLEFORMAT_BEGIN
 90
        5
170
     1
 91
        0
 92
        0
 62
   257
 93
        1
300
CONTENTFORMAT
  1
CONTENTFORMAT_BEGIN
 90
        0
 91
        0
 92
        4
 93
        0
300

 40
0.0
140
1.0
 94
        5
 62
     0
340
1B4
144
0.18
309
CONTENTFORMAT_END
171
     1
301
MARGIN
  1
CELLMARGIN_BEGIN
 40
0.06
 40
0.06
 40
0.06
 40
0.06
 40
0.06
 40
0.06
309
CELLMARGIN_END
 94
        6
 95
        1
302
GRIDFORMAT
  1
GRIDFORMAT_BEGIN
 90
        0
 91
        1
 62
     0
 92
       -2
340
1B6
 93
        0
 40
0.045
309
GRIDFORMAT_END
 95
        2
302
GRIDFORMAT
  1
GRIDFORMAT_BEGIN
 90
        0
 91
        1
 62
     0
 92
       -2
340
1B6
 93
        0
 40
0.045
309
GRIDFORMAT_END
 95
        4
302
GRIDFORMAT
  1
GRIDFORMAT_BEGIN
 90
        0
 91
        1
 62
     0
 92
       -2
340
1B6
 93
        0
 40
0.045
309
GRIDFORMAT_END
 95
        8
302
GRIDFORMAT
  1
GRIDFORMAT_BEGIN
 90
        0
 91
        1
 62
     0
 92
       -2
340
1B6
 93
        0
 40
0.045
309
GRIDFORMAT_END
 95
       16
302
GRIDFORMAT
  1
GRIDFORMAT_BEGIN
 90
        0
 91
        1
 62
     0
 92
       -2
340
1B6
 93
        0
 40
0.045
309
GRIDFORMAT_END
 95
       32
302
GRIDFORMAT
  1
GRIDFORMAT_BEGIN
 90
        0
 91
        1
 62
     0
 92
       -2
340
1B6
 93
        0
 40
0.045
309
GRIDFORMAT_END
309
TABLEFORMAT_END
  1
CELLSTYLE_BEGIN
 90
        2
 91
        1
300
_HEADER
309
CELLSTYLE_END
300
CELLSTYLE
  1
TABLEFORMAT_BEGIN
 90
        5
170
     1
 91
        0
 92
        0
 62
   257
 93
        1
300
CONTENTFORMAT
  1
CONTENTFORMAT_BEGIN
 90
        0
 91
        0
 92
        4
 93
        0
300

 40
0.0
140
1.0
 94
        2
 62
     0
340
1B4
144
0.18
309
CONTENTFORMAT_END
171
     1
301
MARGIN
  1
CELLMARGIN_BEGIN
 40
0.06
 40
0.06
 40
0.06
 40
0.06
 40
0.06
 40
0.06
309
CELLMARGIN_END
 94
        6
 95
        1
302
GRIDFORMAT
  1
GRIDFORMAT_BEGIN
 90
        0
 91
        1
 62
     0
 92
       -2
340
1B6
 93
        0
 40
0.045
309
GRIDFORMAT_END
 95
        2
302
GRIDFORMAT
  1
GRIDFORMAT_BEGIN
 90
        0
 91
        1
 62
     0
 92
       -2
340
1B6
 93
        0
 40
0.045
309
GRIDFORMAT_END
 95
        4
302
GRIDFORMAT
  1
GRIDFORMAT_BEGIN
 90
        0
 91
        1
 62
     0
 92
       -2
340
1B6
 93
        0
 40
0.045
309
GRIDFORMAT_END
 95
        8
302
GRIDFORMAT
  1
GRIDFORMAT_BEGIN
 90
        0
 91
        1
 62
     0
 92
       -2
340
1B6
 93
        0
 40
0.045
309
GRIDFORMAT_END
 95
       16
302
GRIDFORMAT
  1
GRIDFORMAT_BEGIN
 90
        0
 91
        1
 62
     0
 92
       -2
340
1B6
 93
        0
 40
0.045
309
GRIDFORMAT_END
 95
       32
302
GRIDFORMAT
  1
GRIDFORMAT_BEGIN
 90
        0
 91
        1
 62
     0
 92
       -2
340
1B6
 93
        0
 40
0.045
309
GRIDFORMAT_END
309
TABLEFORMAT_END
  1
CELLSTYLE_BEGIN
 90
        3
 91
        2
300
_DATA
309
CELLSTYLE_END
  0
ENDSEC
  0
EOF
